  0
SECTION
  2
HEADER
  9
$ACADVER
  1
AC1015
  9
$ACADMAINTVER
 70
    20
  9
$DWGCODEPAGE
  3
ANSI_949
  9
$INSBASE
 10
0.0
 20
0.0
 30
0.0
  9
$EXTMIN
 10
-0.0128164049386896
 20
-0.010292843060256
 30
-0.0015258207003583
  9
$EXTMAX
 10
447.0254526695068
 20
155.8095066979865
 30
0.0000000349246037
  9
$LIMMIN
 10
0.0
 20
0.0
  9
$LIMMAX
 10
420.0
 20
297.0
  9
$ORTHOMODE
 70
     1
  9
$REGENMODE
 70
     1
  9
$FILLMODE
 70
     1
  9
$QTEXTMODE
 70
     0
  9
$MIRRTEXT
 70
     1
  9
$LTSCALE
 40
10.0
  9
$ATTMODE
 70
     1
  9
$TEXTSIZE
 40
3.149999999999999
  9
$TRACEWID
 40
0.05
  9
$TEXTSTYLE
  7
CIWHS
  9
$CLAYER
  8
0
  9
$CELTYPE
  6
BYLAYER
  9
$CECOLOR
 62
   256
  9
$CELTSCALE
 40
1.0
  9
$DISPSILH
 70
     0
  9
$DIMSCALE
 40
2.0
  9
$DIMASZ
 40
2.5
  9
$DIMEXO
 40
0.8
  9
$DIMDLI
 40
0.8
  9
$DIMRND
 40
0.0
  9
$DIMDLE
 40
0.0
  9
$DIMEXE
 40
0.8
  9
$DIMTP
 40
0.0
  9
$DIMTM
 40
0.0
  9
$DIMTXT
 40
3.0
  9
$DIMCEN
 40
-1.0
  9
$DIMTSZ
 40
0.0
  9
$DIMTOL
 70
     0
  9
$DIMLIM
 70
     0
  9
$DIMTIH
 70
     0
  9
$DIMTOH
 70
     0
  9
$DIMSE1
 70
     0
  9
$DIMSE2
 70
     0
  9
$DIMTAD
 70
     3
  9
$DIMZIN
 70
     8
  9
$DIMBLK
  1

  9
$DIMASO
 70
     1
  9
$DIMSHO
 70
     1
  9
$DIMPOST
  1

  9
$DIMAPOST
  1

  9
$DIMALT
 70
     0
  9
$DIMALTD
 70
     2
  9
$DIMALTF
 40
25.4
  9
$DIMLFAC
 40
1.0
  9
$DIMTOFL
 70
     1
  9
$DIMTVP
 40
0.0
  9
$DIMTIX
 70
     0
  9
$DIMSOXD
 70
     0
  9
$DIMSAH
 70
     0
  9
$DIMBLK1
  1

  9
$DIMBLK2
  1

  9
$DIMSTYLE
  2
STANDARD
  9
$DIMCLRD
 70
   115
  9
$DIMCLRE
 70
   115
  9
$DIMCLRT
 70
     7
  9
$DIMTFAC
 40
1.0
  9
$DIMGAP
 40
1.0
  9
$DIMJUST
 70
     0
  9
$DIMSD1
 70
     0
  9
$DIMSD2
 70
     0
  9
$DIMTOLJ
 70
     1
  9
$DIMTZIN
 70
     0
  9
$DIMALTZ
 70
     0
  9
$DIMALTTZ
 70
     0
  9
$DIMUPT
 70
     0
  9
$DIMDEC
 70
     3
  9
$DIMTDEC
 70
     4
  9
$DIMALTU
 70
     2
  9
$DIMALTTD
 70
     2
  9
$DIMTXSTY
  7
STANDARD
  9
$DIMAUNIT
 70
     0
  9
$DIMADEC
 70
     0
  9
$DIMALTRND
 40
0.0
  9
$DIMAZIN
 70
     0
  9
$DIMDSEP
 70
    46
  9
$DIMATFIT
 70
     3
  9
$DIMFRAC
 70
     0
  9
$DIMLDRBLK
  1

  9
$DIMLUNIT
 70
     2
  9
$DIMLWD
 70
    -2
  9
$DIMLWE
 70
    -2
  9
$DIMTMOVE
 70
     0
  9
$LUNITS
 70
     2
  9
$LUPREC
 70
     4
  9
$SKETCHINC
 40
0.1
  9
$FILLETRAD
 40
0.0
  9
$AUNITS
 70
     0
  9
$AUPREC
 70
     0
  9
$MENU
  1
.
  9
$ELEVATION
 40
0.0
  9
$PELEVATION
 40
0.0
  9
$THICKNESS
 40
0.0
  9
$LIMCHECK
 70
     0
  9
$CHAMFERA
 40
1.0
  9
$CHAMFERB
 40
1.0
  9
$CHAMFERC
 40
1.0
  9
$CHAMFERD
 40
0.0
  9
$SKPOLY
 70
     1
  9
$TDCREATE
 40
2452464.575009942
  9
$TDUCREATE
 40
2452464.200009942
  9
$TDUPDATE
 40
2456846.821597315
  9
$TDUUPDATE
 40
2456846.446597315
  9
$TDINDWG
 40
0.4358497106
  9
$TDUSRTIMER
 40
0.4358497106
  9
$USRTIMER
 70
     1
  9
$ANGBASE
 50
0.0
  9
$ANGDIR
 70
     0
  9
$PDMODE
 70
     0
  9
$PDSIZE
 40
0.0
  9
$PLINEWID
 40
0.5
  9
$SPLFRAME
 70
     0
  9
$SPLINETYPE
 70
     6
  9
$SPLINESEGS
 70
     8
  9
$HANDSEED
  5
98A6
  9
$SURFTAB1
 70
     6
  9
$SURFTAB2
 70
     6
  9
$SURFTYPE
 70
     6
  9
$SURFU
 70
     6
  9
$SURFV
 70
     6
  9
$UCSBASE
  2

  9
$UCSNAME
  2

  9
$UCSORG
 10
0.0
 20
0.0
 30
0.0
  9
$UCSXDIR
 10
1.0
 20
0.0
 30
0.0
  9
$UCSYDIR
 10
0.0
 20
1.0
 30
0.0
  9
$UCSORTHOREF
  2

  9
$UCSORTHOVIEW
 70
     0
  9
$UCSORGTOP
 10
0.0
 20
0.0
 30
0.0
  9
$UCSORGBOTTOM
 10
0.0
 20
0.0
 30
0.0
  9
$UCSORGLEFT
 10
0.0
 20
0.0
 30
0.0
  9
$UCSORGRIGHT
 10
0.0
 20
0.0
 30
0.0
  9
$UCSORGFRONT
 10
0.0
 20
0.0
 30
0.0
  9
$UCSORGBACK
 10
0.0
 20
0.0
 30
0.0
  9
$PUCSBASE
  2

  9
$PUCSNAME
  2

  9
$PUCSORG
 10
0.0
 20
0.0
 30
0.0
  9
$PUCSXDIR
 10
1.0
 20
0.0
 30
0.0
  9
$PUCSYDIR
 10
0.0
 20
1.0
 30
0.0
  9
$PUCSORTHOREF
  2

  9
$PUCSORTHOVIEW
 70
     0
  9
$PUCSORGTOP
 10
0.0
 20
0.0
 30
0.0
  9
$PUCSORGBOTTOM
 10
0.0
 20
0.0
 30
0.0
  9
$PUCSORGLEFT
 10
0.0
 20
0.0
 30
0.0
  9
$PUCSORGRIGHT
 10
0.0
 20
0.0
 30
0.0
  9
$PUCSORGFRONT
 10
0.0
 20
0.0
 30
0.0
  9
$PUCSORGBACK
 10
0.0
 20
0.0
 30
0.0
  9
$USERI1
 70
     0
  9
$USERI2
 70
   452
  9
$USERI3
 70
     1
  9
$USERI4
 70
     0
  9
$USERI5
 70
     0
  9
$USERR1
 40
0.0
  9
$USERR2
 40
0.0
  9
$USERR3
 40
0.0
  9
$USERR4
 40
0.0
  9
$USERR5
 40
0.0
  9
$WORLDVIEW
 70
     1
  9
$SHADEDGE
 70
     3
  9
$SHADEDIF
 70
    70
  9
$TILEMODE
 70
     1
  9
$MAXACTVP
 70
    48
  9
$PINSBASE
 10
0.0
 20
0.0
 30
0.0
  9
$PLIMCHECK
 70
     0
  9
$PEXTMIN
 10
1.000000000000000E+20
 20
1.000000000000000E+20
 30
1.000000000000000E+20
  9
$PEXTMAX
 10
-1.000000000000000E+20
 20
-1.000000000000000E+20
 30
-1.000000000000000E+20
  9
$PLIMMIN
 10
0.0
 20
0.0
  9
$PLIMMAX
 10
12.0
 20
9.0
  9
$UNITMODE
 70
     0
  9
$VISRETAIN
 70
     1
  9
$PLINEGEN
 70
     0
  9
$PSLTSCALE
 70
     1
  9
$TREEDEPTH
 70
  3020
  9
$CMLSTYLE
  2
STANDARD
  9
$CMLJUST
 70
     0
  9
$CMLSCALE
 40
1.0
  9
$PROXYGRAPHICS
 70
     1
  9
$MEASUREMENT
 70
     0
  9
$CELWEIGHT
370
    -1
  9
$ENDCAPS
280
     0
  9
$JOINSTYLE
280
     0
  9
$LWDISPLAY
290
     0
  9
$INSUNITS
 70
     0
  9
$HYPERLINKBASE
  1

  9
$STYLESHEET
  1

  9
$XEDIT
290
     1
  9
$CEPSNTYPE
380
     0
  9
$PSTYLEMODE
290
     1
  9
$FINGERPRINTGUID
  2
{F1593BE7-913B-4FB4-B4F6-29DCA769C7E7}
  9
$VERSIONGUID
  2
{9AB2522C-E802-4D70-AA16-C2B03C9B4439}
  9
$EXTNAMES
290
     1
  9
$PSVPSCALE
 40
0.0
  9
$OLESTARTUP
290
     0
  0
ENDSEC
  0
SECTION
  2
CLASSES
  0
CLASS
  1
DICTIONARYVAR
  2
AcDbDictionaryVar
  3
ObjectDBX Classes
 90
        0
280
     0
281
     0
  0
CLASS
  1
ACDBDICTIONARYWDFLT
  2
AcDbDictionaryWithDefault
  3
ObjectDBX Classes
 90
        0
280
     0
281
     0
  0
CLASS
  1
MATERIAL
  2
AcDbMaterial
  3
ObjectDBX Classes
 90
     1153
280
     0
281
     0
  0
CLASS
  1
VISUALSTYLE
  2
AcDbVisualStyle
  3
ObjectDBX Classes
 90
     4095
280
     0
281
     0
  0
CLASS
  1
TABLESTYLE
  2
AcDbTableStyle
  3
ObjectDBX Classes
 90
     4095
280
     0
281
     0
  0
CLASS
  1
SCALE
  2
AcDbScale
  3
ObjectDBX Classes
 90
     1153
280
     0
281
     0
  0
CLASS
  1
MLEADERSTYLE
  2
AcDbMLeaderStyle
  3
ACDB_MLEADERSTYLE_CLASS
 90
     4095
280
     0
281
     0
  0
CLASS
  1
SORTENTSTABLE
  2
AcDbSortentsTable
  3
ObjectDBX Classes
 90
        0
280
     0
281
     0
  0
CLASS
  1
CELLSTYLEMAP
  2
AcDbCellStyleMap
  3
ObjectDBX Classes
 90
     1152
280
     0
281
     0
  0
CLASS
  1
ACDBPLACEHOLDER
  2
AcDbPlaceHolder
  3
ObjectDBX Classes
 90
        0
280
     0
281
     0
  0
CLASS
  1
LAYOUT
  2
AcDbLayout
  3
ObjectDBX Classes
 90
        0
280
     0
281
     0
  0
CLASS
  1
ACAD_EVALUATION_GRAPH
  2
AcDbEvalGraph
  3
ObjectDBX Classes
 90
     1153
280
     0
281
     0
  0
CLASS
  1
ACAECUSTOBJ
  2
AcAeEditorObj
  3
AcAeEditorObj
 90
     1024
280
     0
281
     0
  0
CLASS
  1
ACDB_DYNAMICBLOCKPURGEPREVENTER_VERSION
  2
AcDbDynamicBlockPurgePreventer
  3
ObjectDBX Classes
 90
     1153
280
     0
281
     0
  0
ENDSEC
  0
SECTION
  2
TABLES
  0
TABLE
  2
VPORT
  5
8
102
{ACAD_XDICTIONARY
360
9225
102
}
330
0
100
AcDbSymbolTable
 70
     1
  0
VPORT
  5
7DC3
330
8
100
AcDbSymbolTableRecord
100
AcDbViewportTableRecord
  2
*ACTIVE
 70
     0
 10
0.0
 20
0.0
 11
1.0
 21
1.0
 12
223.5063181322841
 22
77.89960692746314
 13
0.0
 23
0.0
 14
0.5
 24
0.5
 15
0.5
 25
0.5
 16
0.0
 26
0.0
 36
1.0
 17
0.0
 27
0.0
 37
0.0
 40
198.7226081856126
 41
2.257287705956907
 42
50.0
 43
0.0
 44
0.0
 50
0.0
 51
0.0
 71
     0
 72
   100
 73
     1
 74
     1
 75
     0
 76
     0
 77
     0
 78
     0
281
     0
 65
     1
110
0.0
120
0.0
130
0.0
111
1.0
121
0.0
131
0.0
112
0.0
122
1.0
132
0.0
 79
     0
146
0.0
1001
ACAD_NAV_VCDISPLAY
1070
     3
  0
ENDTAB
  0
TABLE
  2
LTYPE
  5
5
330
0
100
AcDbSymbolTable
 70
     4
  0
LTYPE
  5
13
330
5
100
AcDbSymbolTableRecord
100
AcDbLinetypeTableRecord
  2
BYBLOCK
 70
     0
  3

 72
    65
 73
     0
 40
0.0
  0
LTYPE
  5
14
330
5
100
AcDbSymbolTableRecord
100
AcDbLinetypeTableRecord
  2
BYLAYER
 70
     0
  3

 72
    65
 73
     0
 40
0.0
  0
LTYPE
  5
15
330
5
100
AcDbSymbolTableRecord
100
AcDbLinetypeTableRecord
  2
CONTINUOUS
 70
     0
  3
Solid line
 72
    65
 73
     0
 40
0.0
  0
LTYPE
  5
8EE7
330
5
100
AcDbSymbolTableRecord
100
AcDbLinetypeTableRecord
  2
CENTER
 70
     0
  3
Center ____ _ ____ _ ____ _ ____ _ ____ _ ____
 72
    65
 73
     4
 40
2.0
 49
1.25
 74
     0
 49
-0.25
 74
     0
 49
0.25
 74
     0
 49
-0.25
 74
     0
  0
LTYPE
  5
8EE8
330
5
100
AcDbSymbolTableRecord
100
AcDbLinetypeTableRecord
  2
HIDDEN
 70
     0
  3
Hidden __ __ __ __ __ __ __ __ __ __ __ __ __ _
 72
    65
 73
     2
 40
0.375
 49
0.25
 74
     0
 49
-0.125
 74
     0
  0
ENDTAB
  0
TABLE
  2
LAYER
  5
2
102
{ACAD_XDICTIONARY
360
92E4
102
}
330
0
100
AcDbSymbolTable
 70
     5
  0
LAYER
  5
F
102
{ACAD_XDICTIONARY
360
919E
102
}
330
2
100
AcDbSymbolTableRecord
100
AcDbLayerTableRecord
  2
0
 70
     0
 62
     7
  6
CONTINUOUS
370
    -3
390
7DC6
  0
LAYER
  5
24EF
330
2
100
AcDbSymbolTableRecord
100
AcDbLayerTableRecord
  2
DEFPOINTS
 70
     0
 62
     7
  6
CONTINUOUS
290
     0
370
    -3
390
7DC6
  0
LAYER
  5
8EEA
102
{ACAD_XDICTIONARY
360
91A0
102
}
330
2
100
AcDbSymbolTableRecord
100
AcDbLayerTableRecord
  2
9
 70
     0
 62
     3
  6
CONTINUOUS
370
    -3
390
7DC6
  0
LAYER
  5
8EEB
102
{ACAD_XDICTIONARY
360
91A2
102
}
330
2
100
AcDbSymbolTableRecord
100
AcDbLayerTableRecord
  2
1
 70
     0
 62
     1
  6
CENTER
370
    -3
390
7DC6
  0
LAYER
  5
8EEC
102
{ACAD_XDICTIONARY
360
91A4
102
}
330
2
100
AcDbSymbolTableRecord
100
AcDbLayerTableRecord
  2
2
 70
     0
 62
     2
  6
HIDDEN
370
    -3
390
7DC6
  0
ENDTAB
  0
TABLE
  2
STYLE
  5
3
330
0
100
AcDbSymbolTable
 70
     3
  0
STYLE
  5
10
330
3
100
AcDbSymbolTableRecord
100
AcDbTextStyleTableRecord
  2
STANDARD
 70
     0
 40
0.0
 41
1.0
 50
0.0
 71
     0
 42
3.0
  3
romans.shx
  4

  0
STYLE
  5
24FC
330
3
100
AcDbSymbolTableRecord
100
AcDbTextStyleTableRecord
  2
CIWHS
 70
     0
 40
0.0
 41
1.0
 50
0.0
 71
     0
 42
3.149999999999999
  3
CIES
  4
CIWHS
  0
ENDTAB
  0
TABLE
  2
VIEW
  5
6
330
0
100
AcDbSymbolTable
 70
     0
  0
ENDTAB
  0
TABLE
  2
UCS
  5
7
330
0
100
AcDbSymbolTable
 70
     0
  0
ENDTAB
  0
TABLE
  2
APPID
  5
9
330
0
100
AcDbSymbolTable
 70
    10
  0
APPID
  5
11
330
9
100
AcDbSymbolTableRecord
100
AcDbRegAppTableRecord
  2
ACAD
 70
     0
  0
APPID
  5
2325
330
9
100
AcDbSymbolTableRecord
100
AcDbRegAppTableRecord
  2
MCLBOMATTRIB
 70
     0
  0
APPID
  5
2326
330
9
100
AcDbSymbolTableRecord
100
AcDbRegAppTableRecord
  2
MCLBOM
 70
     0
  0
APPID
  5
7F5B
330
9
100
AcDbSymbolTableRecord
100
AcDbRegAppTableRecord
  2
ACAD_NAV_VCDISPLAY
 70
     0
  0
APPID
  5
8594
330
9
100
AcDbSymbolTableRecord
100
AcDbRegAppTableRecord
  2
ACAD_EXEMPT_FROM_CAD_STANDARDS
 70
     0
  0
APPID
  5
928B
330
9
100
AcDbSymbolTableRecord
100
AcDbRegAppTableRecord
  2
ACAD_MLEADERVER
 70
     0
  0
APPID
  5
95CC
330
9
100
AcDbSymbolTableRecord
100
AcDbRegAppTableRecord
  2
ACAUTHENVIRON
 70
     0
  0
APPID
  5
95D1
330
9
100
AcDbSymbolTableRecord
100
AcDbRegAppTableRecord
  2
AcDbDynamicBlockTrueName
 70
     0
  0
APPID
  5
95D2
330
9
100
AcDbSymbolTableRecord
100
AcDbRegAppTableRecord
  2
AcDbDynamicBlockGUID
 70
     0
  0
APPID
  5
96B5
330
9
100
AcDbSymbolTableRecord
100
AcDbRegAppTableRecord
  2
ACAD_DSTYLE_DIMRADIAL_EXTENSION
 70
     0
  0
ENDTAB
  0
TABLE
  2
DIMSTYLE
  5
A
330
0
100
AcDbSymbolTable
 70
     2
100
AcDbDimStyleTable
 71
     1
340
1D
  0
DIMSTYLE
105
1D
102
{ACAD_REACTORS
330
8F1C
330
8F1D
330
8F1E
330
8F1F
330
8F20
330
8F21
330
8F22
330
8F23
330
8F24
330
8F25
330
8F26
330
8F27
330
8F29
330
8F2A
330
8F2B
330
8F2C
330
8F2F
330
8F36
330
8F37
330
8F43
330
8F2E
102
}
330
A
100
AcDbSymbolTableRecord
100
AcDbDimStyleTableRecord
  2
STANDARD
 70
     0
 41
2.0
140
3.0
176
     2
177
     2
178
     4
340
10
  0
ENDTAB
  0
TABLE
  2
BLOCK_RECORD
  5
1
330
0
100
AcDbSymbolTable
 70
    31
  0
BLOCK_RECORD
  5
19
102
{ACAD_XDICTIONARY
360
8204
102
}
330
1
100
AcDbSymbolTableRecord
100
AcDbBlockTableRecord
  2
*MODEL_SPACE
340
7E12
  0
BLOCK_RECORD
  5
16
330
1
100
AcDbSymbolTableRecord
100
AcDbBlockTableRecord
  2
*PAPER_SPACE
340
7E13
  0
BLOCK_RECORD
  5
8E6E
102
{ACAD_XDICTIONARY
360
8E6F
102
}
330
1
100
AcDbSymbolTableRecord
100
AcDbBlockTableRecord
  2
A$C206831CA
340
0
102
{BLKREFS
331
8F33
102
}
  0
BLOCK_RECORD
  5
8EA3
102
{ACAD_XDICTIONARY
360
96FC
102
}
330
1
100
AcDbSymbolTableRecord
100
AcDbBlockTableRecord
  2
A$C0E2778F5
340
0
102
{BLKREFS
331
8F35
102
}
1001
AcDbDynamicBlockGUID
1000
{E9CE2769-EB91-4084-8E88-82236EF34527}
  0
BLOCK_RECORD
  5
8F44
330
1
100
AcDbSymbolTableRecord
100
AcDbBlockTableRecord
  2
*D2
340
0
  0
BLOCK_RECORD
  5
8F50
330
1
100
AcDbSymbolTableRecord
100
AcDbBlockTableRecord
  2
*D3
340
0
  0
BLOCK_RECORD
  5
8F5C
330
1
100
AcDbSymbolTableRecord
100
AcDbBlockTableRecord
  2
*D4
340
0
  0
BLOCK_RECORD
  5
8F68
330
1
100
AcDbSymbolTableRecord
100
AcDbBlockTableRecord
  2
*D5
340
0
  0
BLOCK_RECORD
  5
8F74
330
1
100
AcDbSymbolTableRecord
100
AcDbBlockTableRecord
  2
*D6
340
0
  0
BLOCK_RECORD
  5
8F80
330
1
100
AcDbSymbolTableRecord
100
AcDbBlockTableRecord
  2
*D7
340
0
  0
BLOCK_RECORD
  5
8F8C
330
1
100
AcDbSymbolTableRecord
100
AcDbBlockTableRecord
  2
*D8
340
0
  0
BLOCK_RECORD
  5
8F98
330
1
100
AcDbSymbolTableRecord
100
AcDbBlockTableRecord
  2
*D9
340
0
  0
BLOCK_RECORD
  5
8FA6
330
1
100
AcDbSymbolTableRecord
100
AcDbBlockTableRecord
  2
*D10
340
0
  0
BLOCK_RECORD
  5
8FB2
330
1
100
AcDbSymbolTableRecord
100
AcDbBlockTableRecord
  2
*D11
340
0
  0
BLOCK_RECORD
  5
8FBE
330
1
100
AcDbSymbolTableRecord
100
AcDbBlockTableRecord
  2
*D12
340
0
  0
BLOCK_RECORD
  5
8FCB
330
1
100
AcDbSymbolTableRecord
100
AcDbBlockTableRecord
  2
*D13
340
0
  0
BLOCK_RECORD
  5
8FE3
330
1
100
AcDbSymbolTableRecord
100
AcDbBlockTableRecord
  2
*D14
340
0
  0
BLOCK_RECORD
  5
8FF0
330
1
100
AcDbSymbolTableRecord
100
AcDbBlockTableRecord
  2
*D15
340
0
  0
BLOCK_RECORD
  5
8FFC
330
1
100
AcDbSymbolTableRecord
100
AcDbBlockTableRecord
  2
*D16
340
0
  0
BLOCK_RECORD
  5
9008
330
1
100
AcDbSymbolTableRecord
100
AcDbBlockTableRecord
  2
*D17
340
0
  0
BLOCK_RECORD
  5
9016
330
1
100
AcDbSymbolTableRecord
100
AcDbBlockTableRecord
  2
*D18
340
0
  0
BLOCK_RECORD
  5
9024
330
1
100
AcDbSymbolTableRecord
100
AcDbBlockTableRecord
  2
*D19
340
0
  0
BLOCK_RECORD
  5
9030
330
1
100
AcDbSymbolTableRecord
100
AcDbBlockTableRecord
  2
*D20
340
0
  0
BLOCK_RECORD
  5
903E
330
1
100
AcDbSymbolTableRecord
100
AcDbBlockTableRecord
  2
*D21
340
0
  0
BLOCK_RECORD
  5
904A
330
1
100
AcDbSymbolTableRecord
100
AcDbBlockTableRecord
  2
*D22
340
0
  0
BLOCK_RECORD
  5
9439
102
{ACAD_XDICTIONARY
360
9730
102
}
330
1
100
AcDbSymbolTableRecord
100
AcDbBlockTableRecord
  2
4020SDH
340
0
310
2800000020000000200000000100080000000000000400000000000000000000000000000000000000000000000080000080000000808000800000008000800080800000C0C0C000C0DCC000F0CAA6000020400000206000002080000020A0000020C0000020E00000400000004020000040400000406000004080000040A0
310
000040C0000040E00000600000006020000060400000606000006080000060A0000060C0000060E00000800000008020000080400000806000008080000080A0000080C0000080E00000A0000000A0200000A0400000A0600000A0800000A0A00000A0C00000A0E00000C0000000C0200000C0400000C0600000C0800000C0
310
A00000C0C00000C0E00000E0000000E0200000E0400000E0600000E0800000E0A00000E0C00000E0E00040000000400020004000400040006000400080004000A0004000C0004000E00040200000402020004020400040206000402080004020A0004020C0004020E000404000004040200040404000404060004040800040
310
40A0004040C0004040E00040600000406020004060400040606000406080004060A0004060C0004060E00040800000408020004080400040806000408080004080A0004080C0004080E00040A0000040A0200040A0400040A0600040A0800040A0A00040A0C00040A0E00040C0000040C0200040C0400040C0600040C08000
310
40C0A00040C0C00040C0E00040E0000040E0200040E0400040E0600040E0800040E0A00040E0C00040E0E00080000000800020008000400080006000800080008000A0008000C0008000E00080200000802020008020400080206000802080008020A0008020C0008020E00080400000804020008040400080406000804080
310
008040A0008040C0008040E00080600000806020008060400080606000806080008060A0008060C0008060E00080800000808020008080400080806000808080008080A0008080C0008080E00080A0000080A0200080A0400080A0600080A0800080A0A00080A0C00080A0E00080C0000080C0200080C0400080C0600080C0
310
800080C0A00080C0C00080C0E00080E0000080E0200080E0400080E0600080E0800080E0A00080E0C00080E0E000C0000000C0002000C0004000C0006000C0008000C000A000C000C000C000E000C0200000C0202000C0204000C0206000C0208000C020A000C020C000C020E000C0400000C0402000C0404000C0406000C0
310
408000C040A000C040C000C040E000C0600000C0602000C0604000C0606000C0608000C060A000C060C000C060E000C0800000C0802000C0804000C0806000C0808000C080A000C080C000C080E000C0A00000C0A02000C0A04000C0A06000C0A08000C0A0A000C0A0C000C0A0E000C0C00000C0C02000C0C04000C0C06000
310
C0C08000C0C0A000F0FBFF00A4A0A000808080000000FF0000FF000000FFFF00FF000000FF00FF00FFFF0000FFFFFF0049494949494949494949494949494949494949494949494949494949494949494949494949494949494949494949494949494949FFFFFFFFFF49494949494949494949494949494949494949494949
310
4949494949FF494949FF494949494949494949494949494949494949494949494949494949FF494949FF494949494949494949494949494949494949494949494949494949FF494949FF494949494949494949494949494949494949494949494949494949FF494949FF49494949494949494949FFFFFFFFFFFFFFFFFFFFFF
310
FFFFFFFFFFFFFFFFFFFFFFFFFFFFFF494949494949FF49494949494949494949494949494949FA494949FA494949FF494949494949FF49494949494949494949494949494949FA494949FA494949FF494949494949FFFBFBFBFBFBFBFBFBFBFBFBFBFBFBFBFBFBFAFBFAFBFBFBFBFF494949494949FF494949494949494949
310
49494949494949FFFA49FAFF494949FF494949494949FF49494949494949494949494949494949FFFA49FAFF494949FF494949494949FF49494949494949494949494949494949FFFA49FAFF494949FF494949494949FF49494949494949494949494949494949FFFA49FAFF494949FF494949494949FF4949494949494949
310
4949494949494949FF49FA49FF494949FF494949494949FF49494949FFFFFFFFFF49FFFFFFFF4949FF49FA49FF494949FF494949494949FF49494949FFFFFFFFFF49FFFFFFFF4949FF49FA49FF494949FF494949494949FF49494949494949494949494949494949FF49FA49FF494949FF494949494949FF49494949494949
310
494949494949494949FFFA49FAFF494949FF494949494949FF49494949494949494949494949494949FFFA49FAFF494949FF494949494949FF49494949494949494949494949494949FFFA49FAFF494949FF494949494949FFFBFBFBFBFBFBFBFBFBFBFBFBFBFBFBFBFBFAFBFAFBFBFBFBFF494949494949FF494949494949
310
49494949494949494949FFFA49FAFF494949FF494949494949FF49494949494949494949494949494949FA494949FA494949FF494949494949FF49494949494949494949494949494949FA494949FA494949FF494949494949FFFFFFFFFFFFFFFFFFFFFFFFFFFFFFFFFFFFFFFFFFFFFFFFFFFF494949494949494949494949
310
4949494949494949494949FFFAFA49FF494949494949494949494949494949494949494949494949494949FFFAFFFAFF494949494949494949494949494949494949494949494949494949FFFFFAFAFF494949494949494949494949494949494949494949494949494949FF49FA49FF494949494949494949494949494949
310
494949494949494949494949FFFFFFFFFF494949494949494949494949494949494949494949494949494949494949494949494949494949
102
{BLKREFS
331
945D
102
}
1001
AcDbDynamicBlockGUID
1000
{EE9935BE-72BE-4F66-86F9-DA7A4CFCAD58}
  0
ENDTAB
  0
ENDSEC
  0
SECTION
  2
BLOCKS
  0
BLOCK
  5
1A
330
19
100
AcDbEntity
  8
0
100
AcDbBlockBegin
  2
*MODEL_SPACE
 70
     0
 10
0.0
 20
0.0
 30
0.0
  3
*MODEL_SPACE
  1

  0
ENDBLK
  5
1B
330
19
100
AcDbEntity
  8
0
100
AcDbBlockEnd
  0
BLOCK
  5
17
330
16
100
AcDbEntity
 67
     1
  8
0
100
AcDbBlockBegin
  2
*PAPER_SPACE
 70
     0
 10
0.0
 20
0.0
 30
0.0
  3
*PAPER_SPACE
  1

  0
ENDBLK
  5
18
330
16
100
AcDbEntity
 67
     1
  8
0
100
AcDbBlockEnd
  0
BLOCK
  5
8E71
330
8E6E
100
AcDbEntity
  8
0
100
AcDbBlockBegin
  2
A$C206831CA
 70
     0
 10
0.0
 20
0.0
 30
0.0
  3
A$C206831CA
  1

  0
TEXT
  5
8E72
330
8E6E
100
AcDbEntity
  8
0
100
AcDbText
 10
32.2500023093877
 20
17.79999985391214
 30
0.0
 40
4.0
  1
RM4020
 72
     4
 11
44.2500023093877
 21
19.79999985391214
 31
0.0
100
AcDbText
  0
LINE
  5
8E73
330
8E6E
100
AcDbEntity
  8
0
  6
Continuous
100
AcDbLine
 10
-0.0000006906123247
 20
39.59999985391187
 30
0.0
 11
299.9999993093877
 21
39.59999985391187
 31
0.0
  0
LINE
  5
8E74
330
8E6E
100
AcDbEntity
  8
0
  6
Continuous
100
AcDbLine
 10
-0.0000006906123531
 20
-0.0000001460881549
 30
0.0
 11
299.9999993093877
 21
-0.0000001460881549
 31
0.0
  0
LINE
  5
8E75
330
8E6E
100
AcDbEntity
  8
9
  6
Continuous
100
AcDbLine
 10
-0.0000006906123531
 20
37.39999985391182
 30
0.0
 11
299.9999993093877
 21
37.39999985391182
 31
0.0
  0
LINE
  5
8E76
330
8E6E
100
AcDbEntity
  8
9
  6
Continuous
100
AcDbLine
 10
-0.0000006906123247
 20
2.19999985391189
 30
0.0
 11
299.9999993093877
 21
2.19999985391189
 31
0.0
  0
LINE
  5
8E77
330
8E6E
100
AcDbEntity
  8
0
100
AcDbLine
 10
-0.0000006906123531
 20
-0.0000001460881549
 30
0.0
 11
-0.0000006906123247
 21
39.59999985391187
 31
0.0
  0
LINE
  5
8E78
330
8E6E
100
AcDbEntity
  8
0
100
AcDbLine
 10
299.9999993093877
 20
39.59999985391187
 30
0.0
 11
299.9999993093877
 21
-0.0000001460881549
 31
0.0
  0
ENDBLK
  5
8E79
330
8E6E
100
AcDbEntity
  8
0
100
AcDbBlockEnd
  0
BLOCK
  5
8EA6
330
8EA3
100
AcDbEntity
  8
0
100
AcDbBlockBegin
  2
A$C0E2778F5
 70
     0
 10
0.0
 20
0.0
 30
0.0
  3
A$C0E2778F5
  1

  0
CIRCLE
  5
96E3
330
8EA3
100
AcDbEntity
  8
0
100
AcDbCircle
 10
7.442476316482157
 20
18.8774054684045
 30
0.0
 40
4.5
  0
CIRCLE
  5
96E4
330
8EA3
100
AcDbEntity
  8
0
100
AcDbCircle
 10
24.92569802375908
 20
8.783462709406194
 30
0.0
 40
4.5
  0
LINE
  5
96E5
330
8EA3
100
AcDbEntity
  8
2
100
AcDbLine
 10
9.411756433404207
 20
84.20872550845984
 30
0.0
 11
23.5178281937065
 21
59.77629306520414
 31
0.0
  0
LINE
  5
96E6
330
8EA3
100
AcDbEntity
  8
2
100
AcDbLine
 10
29.23359607533269
 20
63.07629327023324
 30
0.0
 11
15.12752434964858
 21
87.50872565352899
 31
0.0
  0
LINE
  5
96E7
330
8EA3
100
AcDbEntity
  8
2
100
AcDbLine
 10
20.72574573001639
 20
79.21232220466063
 30
0.0
 11
13.79754267244748
 21
75.21232230437274
 31
0.0
  0
LINE
  5
96E8
330
8EA3
100
AcDbEntity
  8
2
100
AcDbLine
 10
8.805539237612181
 20
83.85872584728195
 30
0.0
 11
13.79754267244736
 21
75.21232230437288
 31
0.0
  0
LINE
  5
96E9
330
8EA3
100
AcDbEntity
  8
2
100
AcDbLine
 10
20.72574573001628
 20
79.21232220466063
 30
0.0
 11
15.7337422951811
 21
87.85872574756975
 31
0.0
  0
CIRCLE
  5
96EA
330
8EA3
100
AcDbEntity
  8
0
100
AcDbCircle
 10
35.01964078275751
 20
46.45456993467997
 30
0.0
 40
19.79999999999995
  0
CIRCLE
  5
96EB
330
8EA3
100
AcDbEntity
  8
0
100
AcDbCircle
 10
35.01964078275751
 20
46.45456993467997
 30
0.0
 40
31.5
  0
LINE
  5
96EC
330
8EA3
100
AcDbEntity
  8
0
100
AcDbLine
 10
70.01964078275751
 20
15.84003090499663
 30
0.0
 11
70.01964078275751
 21
77.06910896436318
 31
0.0
  0
LINE
  5
96ED
330
8EA3
100
AcDbEntity
  8
0
100
AcDbLine
 10
0.0196407827575058
 20
15.84003090499663
 30
0.0
 11
0.0196407827575058
 21
77.06910896436307
 31
0.0
  0
ARC
  5
96EE
330
8EA3
100
AcDbEntity
  8
0
100
AcDbCircle
 10
35.01964078275751
 20
46.45456993467985
 30
0.0
 40
46.5
100
AcDbArc
 50
221.1762247037565
 51
318.8237752962432
  0
ARC
  5
96EF
330
8EA3
100
AcDbEntity
  8
0
100
AcDbCircle
 10
35.01964078275751
 20
46.45456993467985
 30
0.0
 40
46.0
100
AcDbArc
 50
40.45908308079089
 51
111.544527419896
  0
ARC
  5
96F0
330
8EA3
100
AcDbEntity
  8
0
100
AcDbCircle
 10
35.01964078275751
 20
46.45456993467985
 30
0.0
 40
46.0
100
AcDbArc
 50
220.4590830807909
 51
319.5409169192091
  0
ARC
  5
96F1
330
8EA3
100
AcDbEntity
  8
0
100
AcDbCircle
 10
35.01964078275751
 20
46.45456993467985
 30
0.0
 40
46.0
100
AcDbArc
 50
128.3189018269148
 51
139.5409169192091
  0
CIRCLE
  5
96F2
330
8EA3
100
AcDbEntity
  8
0
100
AcDbCircle
 10
62.59680524903285
 20
18.8774054684045
 30
0.0
 40
4.5
  0
CIRCLE
  5
96F3
330
8EA3
100
AcDbEntity
  8
0
100
AcDbCircle
 10
45.11358354175593
 20
8.783462709406194
 30
0.0
 40
4.5
  0
CIRCLE
  5
96F4
330
8EA3
100
AcDbEntity
  8
0
100
AcDbCircle
 10
7.442476316482157
 20
74.0317344009552
 30
0.0
 40
4.5
  0
CIRCLE
  5
96F5
330
8EA3
100
AcDbEntity
  8
0
100
AcDbCircle
 10
24.92569802375908
 20
84.12567715995351
 30
0.0
 40
4.5
  0
CIRCLE
  5
96F6
330
8EA3
100
AcDbEntity
  8
0
100
AcDbCircle
 10
62.59680524903285
 20
74.0317344009552
 30
0.0
 40
4.5
  0
CIRCLE
  5
96F7
330
8EA3
100
AcDbEntity
  8
0
100
AcDbCircle
 10
45.11358354175593
 20
84.12567715995351
 30
0.0
 40
4.5
  0
ARC
  5
96F8
330
8EA3
100
AcDbEntity
  8
9
100
AcDbCircle
 10
35.01964078275751
 20
46.45456993467985
 30
0.0
 40
17.59999999999996
100
AcDbArc
 50
180.0
 51
90.0
  0
ARC
  5
96F9
330
8EA3
100
AcDbEntity
  8
0
100
AcDbCircle
 10
35.01964078275751
 20
46.45456993467985
 30
0.0
 40
46.5
100
AcDbArc
 50
41.17622470375702
 51
108.09601019589
  0
LINE
  5
96FA
330
8EA3
100
AcDbEntity
  8
0
100
AcDbLine
 10
20.5762646456756
 20
90.65455733018453
 30
0.0
 11
3.963016919839446
 21
81.06289428355911
 31
0.0
  0
ARC
  5
96FB
330
8EA3
100
AcDbEntity
  8
0
100
AcDbCircle
 10
35.01964078275751
 20
46.45456993467985
 30
0.0
 40
46.5
100
AcDbArc
 50
131.90398980411
 51
138.8237752962437
  0
ENDBLK
  5
8EC0
330
8EA3
100
AcDbEntity
  8
0
100
AcDbBlockEnd
  0
BLOCK
  5
8F45
330
8F44
100
AcDbEntity
  8
0
100
AcDbBlockBegin
  2
*D2
 70
     1
 10
0.0
 20
0.0
 30
0.0
  3
*D2
  1

  0
LINE
  5
9156
330
8F44
100
AcDbEntity
  8
0
 62
   115
370
    -2
100
AcDbLine
 10
20.99999972527948
 20
71.89284891151363
 30
0.0
 11
10.99999972527921
 21
71.89284891151363
 31
0.0
  0
LINE
  5
9157
330
8F44
100
AcDbEntity
  8
0
 62
   115
370
    -2
100
AcDbLine
 10
20.99999972527945
 20
107.0928489115135
 30
0.0
 11
10.99999972527922
 21
107.0928489115135
 31
0.0
  0
LINE
  5
9158
330
8F44
100
AcDbEntity
  8
0
 62
   115
370
    -2
100
AcDbLine
 10
11.99999972527922
 20
74.89284891151362
 30
0.0
 11
11.99999972527922
 21
104.0928489115135
 31
0.0
  0
SOLID
  5
9159
330
8F44
100
AcDbEntity
  8
0
 62
   115
100
AcDbTrace
 10
11.49999972527921
 20
74.89284891151362
 30
0.0
 11
12.49999972527922
 21
74.89284891151362
 31
0.0
 12
11.99999972527922
 22
71.89284891151363
 32
0.0
 13
11.99999972527922
 23
71.89284891151363
 33
0.0
  0
SOLID
  5
915A
330
8F44
100
AcDbEntity
  8
0
 62
   115
100
AcDbTrace
 10
11.49999972527922
 20
104.0928489115135
 30
0.0
 11
12.49999972527922
 21
104.0928489115135
 31
0.0
 12
11.99999972527922
 22
107.0928489115135
 32
0.0
 13
11.99999972527922
 23
107.0928489115135
 33
0.0
  0
MTEXT
  5
915B
330
8F44
100
AcDbEntity
  8
0
 62
     7
100
AcDbMText
 10
9.499999725279206
 20
89.49284891151359
 30
0.0
 40
3.0
 41
0.0
 71
     5
 72
     1
  1
\A1;%%C35.2
 11
0.0000000000000001
 21
1.0
 31
0.0
 73
     1
 44
1.0
1001
ACAD
1000
MTEXTBEGIN
1070
    73
1070
     1
1070
    44
1040
1.0
1070
    74
1070
     0
1000
MTEXTEND
  0
POINT
  5
915C
330
8F44
100
AcDbEntity
  8
DEFPOINTS
 62
     0
100
AcDbPoint
 10
21.99999972527948
 20
71.89284891151363
 30
0.0
  0
POINT
  5
915D
330
8F44
100
AcDbEntity
  8
DEFPOINTS
 62
     0
100
AcDbPoint
 10
21.99999972527945
 20
107.0928489115135
 30
0.0
  0
POINT
  5
915E
330
8F44
100
AcDbEntity
  8
DEFPOINTS
 62
     0
100
AcDbPoint
 10
11.99999972527922
 20
107.0928489115135
 30
0.0
  0
ENDBLK
  5
8F46
330
8F44
100
AcDbEntity
  8
0
100
AcDbBlockEnd
  0
BLOCK
  5
8F51
330
8F50
100
AcDbEntity
  8
0
100
AcDbBlockBegin
  2
*D3
 70
     1
 10
0.0
 20
0.0
 30
0.0
  3
*D3
  1

  0
LINE
  5
905F
330
8F50
100
AcDbEntity
  8
0
 62
   115
370
    -2
100
AcDbLine
 10
20.99999972527945
 20
69.69284891151358
 30
0.0
 11
2.999999725279214
 21
69.69284891151358
 31
0.0
  0
LINE
  5
9060
330
8F50
100
AcDbEntity
  8
0
 62
   115
370
    -2
100
AcDbLine
 10
20.99999972527948
 20
109.2928489115136
 30
0.0
 11
2.999999725279223
 21
109.2928489115136
 31
0.0
  0
LINE
  5
9061
330
8F50
100
AcDbEntity
  8
0
 62
   115
370
    -2
100
AcDbLine
 10
3.999999725279215
 20
72.69284891151357
 30
0.0
 11
3.999999725279223
 21
106.2928489115136
 31
0.0
  0
SOLID
  5
9062
330
8F50
100
AcDbEntity
  8
0
 62
   115
100
AcDbTrace
 10
3.499999725279215
 20
72.69284891151357
 30
0.0
 11
4.499999725279215
 21
72.69284891151357
 31
0.0
 12
3.999999725279215
 22
69.69284891151358
 32
0.0
 13
3.999999725279215
 23
69.69284891151358
 33
0.0
  0
SOLID
  5
9063
330
8F50
100
AcDbEntity
  8
0
 62
   115
100
AcDbTrace
 10
3.499999725279223
 20
106.2928489115136
 30
0.0
 11
4.499999725279223
 21
106.2928489115136
 31
0.0
 12
3.999999725279224
 22
109.2928489115136
 32
0.0
 13
3.999999725279224
 23
109.2928489115136
 33
0.0
  0
MTEXT
  5
9064
330
8F50
100
AcDbEntity
  8
0
 62
     7
100
AcDbMText
 10
1.499999725279205
 20
89.49284891151359
 30
0.0
 40
3.0
 41
0.0
 71
     5
 72
     1
  1
\A1;%%C39.6
 11
0.0000000000000001
 21
1.0
 31
0.0
 73
     1
 44
1.0
1001
ACAD
1000
MTEXTBEGIN
1070
    73
1070
     1
1070
    44
1040
1.0
1070
    74
1070
     0
1000
MTEXTEND
  0
POINT
  5
9065
330
8F50
100
AcDbEntity
  8
DEFPOINTS
 62
     0
100
AcDbPoint
 10
21.99999972527945
 20
69.69284891151358
 30
0.0
  0
POINT
  5
9066
330
8F50
100
AcDbEntity
  8
DEFPOINTS
 62
     0
100
AcDbPoint
 10
21.99999972527948
 20
109.2928489115136
 30
0.0
  0
POINT
  5
9067
330
8F50
100
AcDbEntity
  8
DEFPOINTS
 62
     0
100
AcDbPoint
 10
3.999999725279224
 20
109.2928489115136
 30
0.0
  0
ENDBLK
  5
8F52
330
8F50
100
AcDbEntity
  8
0
100
AcDbBlockEnd
  0
BLOCK
  5
8F5D
330
8F5C
100
AcDbEntity
  8
0
100
AcDbBlockBegin
  2
*D4
 70
     1
 10
0.0
 20
0.0
 30
0.0
  3
*D4
  1

  0
LINE
  5
954B
330
8F5C
100
AcDbEntity
  8
0
 62
   115
370
    -2
100
AcDbLine
 10
123.9999995752794
 20
58.01597226151364
 30
0.0
 11
112.9999995752793
 21
58.01597226151364
 31
0.0
  0
LINE
  5
954C
330
8F5C
100
AcDbEntity
  8
0
 62
   115
370
    -2
100
AcDbLine
 10
123.9999995752795
 20
121.0159644615137
 30
0.0
 11
112.9999995752794
 21
121.0159644615137
 31
0.0
  0
LINE
  5
954D
330
8F5C
100
AcDbEntity
  8
0
 62
   115
370
    -2
100
AcDbLine
 10
113.9999995752793
 20
61.01597226151364
 30
0.0
 11
113.9999995752794
 21
118.0159644615137
 31
0.0
  0
SOLID
  5
954E
330
8F5C
100
AcDbEntity
  8
0
 62
   115
100
AcDbTrace
 10
113.4999995752794
 20
61.01597226151364
 30
0.0
 11
114.4999995752794
 21
61.01597226151364
 31
0.0
 12
113.9999995752793
 22
58.01597226151364
 32
0.0
 13
113.9999995752793
 23
58.01597226151364
 33
0.0
  0
SOLID
  5
954F
330
8F5C
100
AcDbEntity
  8
0
 62
   115
100
AcDbTrace
 10
113.4999995752794
 20
118.0159644615137
 30
0.0
 11
114.4999995752794
 21
118.0159644615137
 31
0.0
 12
113.9999995752794
 22
121.0159644615137
 32
0.0
 13
113.9999995752794
 23
121.0159644615137
 33
0.0
  0
MTEXT
  5
9550
330
8F5C
100
AcDbEntity
  8
0
 62
     7
100
AcDbMText
 10
110.714285289565
 20
89.51596836151372
 30
0.0
 40
3.0
 41
0.0
 71
     5
 72
     1
  1
\A1;%%C63 g6 ({\H0.5x;\S-0.010^ -0.029;})
 11
0.0000000000000001
 21
1.0
 31
0.0
 73
     1
 44
1.0
1001
ACAD
1000
MTEXTBEGIN
1070
    73
1070
     1
1070
    44
1040
1.0
1070
    74
1070
     0
1000
MTEXTEND
  0
POINT
  5
9551
330
8F5C
100
AcDbEntity
  8
DEFPOINTS
 62
     0
100
AcDbPoint
 10
124.9999995752794
 20
58.01597226151364
 30
0.0
  0
POINT
  5
9552
330
8F5C
100
AcDbEntity
  8
DEFPOINTS
 62
     0
100
AcDbPoint
 10
124.9999995752795
 20
121.0159644615137
 30
0.0
  0
POINT
  5
9553
330
8F5C
100
AcDbEntity
  8
DEFPOINTS
 62
     0
100
AcDbPoint
 10
113.9999995752794
 20
121.0159644615137
 30
0.0
  0
ENDBLK
  5
8F5E
330
8F5C
100
AcDbEntity
  8
0
100
AcDbBlockEnd
  0
BLOCK
  5
8F69
330
8F68
100
AcDbEntity
  8
0
100
AcDbBlockBegin
  2
*D5
 70
     1
 10
0.0
 20
0.0
 30
0.0
  3
*D5
  1

  0
LINE
  5
9530
330
8F68
100
AcDbEntity
  8
0
 62
   115
370
    -2
100
AcDbLine
 10
180.0000058752795
 20
43.00000092185854
 30
0.0
 11
180.0000058752795
 21
32.00000092185849
 31
0.0
  0
LINE
  5
9531
330
8F68
100
AcDbEntity
  8
0
 62
   115
370
    -2
100
AcDbLine
 10
123.9999995752794
 20
58.01597226151369
 30
0.0
 11
123.9999995752794
 21
32.00000092185849
 31
0.0
  0
LINE
  5
9532
330
8F68
100
AcDbEntity
  8
0
 62
   115
370
    -2
100
AcDbLine
 10
177.0000058752795
 20
33.00000092185849
 30
0.0
 11
126.9999995752794
 21
33.00000092185849
 31
0.0
  0
SOLID
  5
9533
330
8F68
100
AcDbEntity
  8
0
 62
   115
100
AcDbTrace
 10
177.0000058752795
 20
33.50000092185849
 30
0.0
 11
177.0000058752795
 21
32.50000092185849
 31
0.0
 12
180.0000058752795
 22
33.00000092185849
 32
0.0
 13
180.0000058752795
 23
33.00000092185849
 33
0.0
  0
SOLID
  5
9534
330
8F68
100
AcDbEntity
  8
0
 62
   115
100
AcDbTrace
 10
126.9999995752794
 20
33.50000092185849
 30
0.0
 11
126.9999995752794
 21
32.50000092185849
 31
0.0
 12
123.9999995752794
 22
33.00000092185849
 32
0.0
 13
123.9999995752794
 23
33.00000092185849
 33
0.0
  0
MTEXT
  5
9535
330
8F68
100
AcDbEntity
  8
0
 62
     7
100
AcDbMText
 10
152.0000027252794
 20
35.50000092185849
 30
0.0
 40
3.0
 41
0.0
 71
     5
 72
     1
  1
\A1;56
 73
     1
 44
1.0
1001
ACAD
1000
MTEXTBEGIN
1070
    73
1070
     1
1070
    44
1040
1.0
1070
    74
1070
     0
1000
MTEXTEND
  0
POINT
  5
9536
330
8F68
100
AcDbEntity
  8
DEFPOINTS
 62
     0
100
AcDbPoint
 10
180.0000058752795
 20
44.00000092185854
 30
0.0
  0
POINT
  5
9537
330
8F68
100
AcDbEntity
  8
DEFPOINTS
 62
     0
100
AcDbPoint
 10
123.9999995752794
 20
59.0159722615137
 30
0.0
  0
POINT
  5
9538
330
8F68
100
AcDbEntity
  8
DEFPOINTS
 62
     0
100
AcDbPoint
 10
123.9999995752794
 20
33.00000092185849
 30
0.0
  0
ENDBLK
  5
8F6A
330
8F68
100
AcDbEntity
  8
0
100
AcDbBlockEnd
  0
BLOCK
  5
8F75
330
8F74
100
AcDbEntity
  8
0
100
AcDbBlockBegin
  2
*D6
 70
     1
 10
0.0
 20
0.0
 30
0.0
  3
*D6
  1

  0
LINE
  5
950B
330
8F74
100
AcDbEntity
  8
0
 62
   115
370
    -2
100
AcDbLine
 10
180.0000058752795
 20
43.00000092185854
 30
0.0
 11
180.0000058752795
 21
32.00000092185849
 31
0.0
  0
LINE
  5
950C
330
8F74
100
AcDbEntity
  8
0
 62
   115
370
    -2
100
AcDbLine
 10
194.0000058752795
 20
43.0000009218586
 30
0.0
 11
194.0000058752795
 21
32.00000092185849
 31
0.0
  0
LINE
  5
950D
330
8F74
100
AcDbEntity
  8
0
 62
   115
370
    -2
100
AcDbLine
 10
183.0000058752795
 20
33.00000092185849
 30
0.0
 11
191.0000058752795
 21
33.00000092185849
 31
0.0
  0
SOLID
  5
950E
330
8F74
100
AcDbEntity
  8
0
 62
   115
100
AcDbTrace
 10
183.0000058752795
 20
33.50000092185849
 30
0.0
 11
183.0000058752795
 21
32.50000092185849
 31
0.0
 12
180.0000058752795
 22
33.00000092185849
 32
0.0
 13
180.0000058752795
 23
33.00000092185849
 33
0.0
  0
SOLID
  5
950F
330
8F74
100
AcDbEntity
  8
0
 62
   115
100
AcDbTrace
 10
191.0000058752795
 20
33.50000092185849
 30
0.0
 11
191.0000058752795
 21
32.50000092185849
 31
0.0
 12
194.0000058752795
 22
33.00000092185849
 32
0.0
 13
194.0000058752795
 23
33.00000092185849
 33
0.0
  0
MTEXT
  5
9510
330
8F74
100
AcDbEntity
  8
0
 62
     7
100
AcDbMText
 10
187.0000058752795
 20
35.50000092185849
 30
0.0
 40
3.0
 41
0.0
 71
     5
 72
     1
  1
\A1;14
 73
     1
 44
1.0
1001
ACAD
1000
MTEXTBEGIN
1070
    73
1070
     1
1070
    44
1040
1.0
1070
    74
1070
     0
1000
MTEXTEND
  0
POINT
  5
9511
330
8F74
100
AcDbEntity
  8
DEFPOINTS
 62
     0
100
AcDbPoint
 10
180.0000058752795
 20
44.00000092185854
 30
0.0
  0
POINT
  5
9512
330
8F74
100
AcDbEntity
  8
DEFPOINTS
 62
     0
100
AcDbPoint
 10
194.0000058752795
 20
44.0000009218586
 30
0.0
  0
POINT
  5
9513
330
8F74
100
AcDbEntity
  8
DEFPOINTS
 62
     0
100
AcDbPoint
 10
194.0000058752795
 20
33.00000092185849
 30
0.0
  0
ENDBLK
  5
8F76
330
8F74
100
AcDbEntity
  8
0
100
AcDbBlockEnd
  0
BLOCK
  5
8F81
330
8F80
100
AcDbEntity
  8
0
100
AcDbBlockBegin
  2
*D7
 70
     1
 10
0.0
 20
0.0
 30
0.0
  3
*D7
  1

  0
LINE
  5
9542
330
8F80
100
AcDbEntity
  8
0
 62
   115
370
    -2
100
AcDbLine
 10
123.9999995752794
 20
58.01597226151369
 30
0.0
 11
123.9999995752794
 21
24.00000092185872
 31
0.0
  0
LINE
  5
9543
330
8F80
100
AcDbEntity
  8
0
 62
   115
370
    -2
100
AcDbLine
 10
206.9999998752795
 20
58.01597836151365
 30
0.0
 11
206.9999998752795
 21
24.00000092185872
 31
0.0
  0
LINE
  5
9544
330
8F80
100
AcDbEntity
  8
0
 62
   115
370
    -2
100
AcDbLine
 10
126.9999995752794
 20
25.00000092185871
 30
0.0
 11
203.9999998752795
 21
25.00000092185871
 31
0.0
  0
SOLID
  5
9545
330
8F80
100
AcDbEntity
  8
0
 62
   115
100
AcDbTrace
 10
126.9999995752794
 20
25.50000092185872
 30
0.0
 11
126.9999995752794
 21
24.50000092185872
 31
0.0
 12
123.9999995752794
 22
25.00000092185871
 32
0.0
 13
123.9999995752794
 23
25.00000092185871
 33
0.0
  0
SOLID
  5
9546
330
8F80
100
AcDbEntity
  8
0
 62
   115
100
AcDbTrace
 10
203.9999998752795
 20
25.50000092185872
 30
0.0
 11
203.9999998752795
 21
24.50000092185872
 31
0.0
 12
206.9999998752795
 22
25.00000092185871
 32
0.0
 13
206.9999998752795
 23
25.00000092185871
 33
0.0
  0
MTEXT
  5
9547
330
8F80
100
AcDbEntity
  8
0
 62
     7
100
AcDbMText
 10
165.4999997252794
 20
27.50000092185871
 30
0.0
 40
3.0
 41
0.0
 71
     5
 72
     1
  1
\A1;83
 73
     1
 44
1.0
1001
ACAD
1000
MTEXTBEGIN
1070
    73
1070
     1
1070
    44
1040
1.0
1070
    74
1070
     0
1000
MTEXTEND
  0
POINT
  5
9548
330
8F80
100
AcDbEntity
  8
DEFPOINTS
 62
     0
100
AcDbPoint
 10
123.9999995752794
 20
59.0159722615137
 30
0.0
  0
POINT
  5
9549
330
8F80
100
AcDbEntity
  8
DEFPOINTS
 62
     0
100
AcDbPoint
 10
206.9999998752795
 20
59.01597836151364
 30
0.0
  0
POINT
  5
954A
330
8F80
100
AcDbEntity
  8
DEFPOINTS
 62
     0
100
AcDbPoint
 10
206.9999998752795
 20
25.00000092185871
 30
0.0
  0
ENDBLK
  5
8F82
330
8F80
100
AcDbEntity
  8
0
100
AcDbBlockEnd
  0
BLOCK
  5
8F8D
330
8F8C
100
AcDbEntity
  8
0
100
AcDbBlockBegin
  2
*D8
 70
     1
 10
0.0
 20
0.0
 30
0.0
  3
*D8
  1

  0
LINE
  5
908C
330
8F8C
100
AcDbEntity
  8
0
 62
   115
370
    -2
100
AcDbLine
 10
357.9999997252794
 20
57.87830988183031
 30
0.0
 11
357.9999997252794
 21
0.0000009218588275
 31
0.0
  0
LINE
  5
908D
330
8F8C
100
AcDbEntity
  8
0
 62
   115
370
    -2
100
AcDbLine
 10
427.9999997252794
 20
57.87830988183031
 30
0.0
 11
427.9999997252794
 21
0.0000009218588275
 31
0.0
  0
LINE
  5
908E
330
8F8C
100
AcDbEntity
  8
0
 62
   115
370
    -2
100
AcDbLine
 10
360.9999997252795
 20
1.000000921858827
 30
0.0
 11
424.9999997252794
 21
1.000000921858827
 31
0.0
  0
SOLID
  5
908F
330
8F8C
100
AcDbEntity
  8
0
 62
   115
100
AcDbTrace
 10
360.9999997252795
 20
1.500000921858827
 30
0.0
 11
360.9999997252795
 21
0.5000009218588275
 31
0.0
 12
357.9999997252794
 22
1.000000921858827
 32
0.0
 13
357.9999997252794
 23
1.000000921858827
 33
0.0
  0
SOLID
  5
9090
330
8F8C
100
AcDbEntity
  8
0
 62
   115
100
AcDbTrace
 10
424.9999997252794
 20
1.500000921858827
 30
0.0
 11
424.9999997252794
 21
0.5000009218588275
 31
0.0
 12
427.9999997252794
 22
1.000000921858827
 32
0.0
 13
427.9999997252794
 23
1.000000921858827
 33
0.0
  0
MTEXT
  5
9091
330
8F8C
100
AcDbEntity
  8
0
 62
     7
100
AcDbMText
 10
392.9999997252794
 20
3.500000921858827
 30
0.0
 40
3.0
 41
0.0
 71
     5
 72
     1
  1
\A1;70
 73
     1
 44
1.0
1001
ACAD
1000
MTEXTBEGIN
1070
    73
1070
     1
1070
    44
1040
1.0
1070
    74
1070
     0
1000
MTEXTEND
  0
POINT
  5
9092
330
8F8C
100
AcDbEntity
  8
DEFPOINTS
 62
     0
100
AcDbPoint
 10
357.9999997252794
 20
58.87830988183032
 30
0.0
  0
POINT
  5
9093
330
8F8C
100
AcDbEntity
  8
DEFPOINTS
 62
     0
100
AcDbPoint
 10
427.9999997252794
 20
58.87830988183032
 30
0.0
  0
POINT
  5
9094
330
8F8C
100
AcDbEntity
  8
DEFPOINTS
 62
     0
100
AcDbPoint
 10
427.9999997252794
 20
1.000000921858827
 30
0.0
  0
ENDBLK
  5
8F8E
330
8F8C
100
AcDbEntity
  8
0
100
AcDbBlockEnd
  0
BLOCK
  5
8F99
330
8F98
100
AcDbEntity
  8
0
100
AcDbBlockBegin
  2
*D9
 70
     1
 10
0.0
 20
0.0
 30
0.0
  3
*D9
  1

  0
LINE
  5
9095
330
8F98
100
AcDbEntity
  8
0
 62
   115
370
    -2
100
AcDbLine
 10
380.7060950829094
 20
43.61137216278271
 30
0.0
 11
378.5148623558756
 21
35.43358029428474
 31
0.0
  0
LINE
  5
9096
330
8F98
100
AcDbEntity
  8
0
 62
   115
370
    -2
100
AcDbLine
 10
405.2939043676494
 20
43.61137216278271
 30
0.0
 11
407.4851370946833
 21
35.43358029428474
 31
0.0
  0
ARC
  5
9097
330
8F98
100
AcDbEntity
  8
0
 62
   115
370
    -2
100
AcDbCircle
 10
392.9999997252794
 20
89.49284891151304
 30
0.0
 40
54.9662731298069
100
AcDbArc
 50
258.1275302182324
 51
281.8724697817676
  0
SOLID
  5
9098
330
8F98
100
AcDbEntity
  8
0
 62
   115
100
AcDbTrace
 10
381.5753872381827
 20
35.2161023848295
 30
0.0
 11
381.807750296413
 21
36.18873150693609
 31
0.0
 12
378.7736814009781
 22
36.39950612057381
 32
0.0
 13
378.7736814009781
 23
36.39950612057381
 33
0.0
  0
SOLID
  5
9099
330
8F98
100
AcDbEntity
  8
0
 62
   115
100
AcDbTrace
 10
404.1922491541458
 20
36.18873150693609
 30
0.0
 11
404.4246122123761
 21
35.2161023848295
 31
0.0
 12
407.2263180495808
 22
36.39950612057381
 32
0.0
 13
407.2263180495808
 23
36.39950612057381
 33
0.0
  0
MTEXT
  5
909A
102
{ACAD_XDICTIONARY
360
98A0
102
}
330
8F98
100
AcDbEntity
  8
0
 62
     7
100
AcDbMText
 10
392.9999997252794
 20
37.02657578170614
 30
0.0
 40
3.0
 41
0.0
 71
     5
 72
     1
  1
\A1;30\U+00B0
 73
     1
 44
1.0
1001
ACAD
1000
MTEXTBEGIN
1070
    73
1070
     1
1070
    44
1040
1.0
1070
    74
1070
     0
1000
MTEXTEND
  0
POINT
  5
909B
330
8F98
100
AcDbEntity
  8
DEFPOINTS
 62
     0
100
AcDbPoint
 10
388.2093733645803
 20
34.73573904573664
 30
0.0
  0
POINT
  5
909C
330
8F98
100
AcDbEntity
  8
DEFPOINTS
 62
     0
100
AcDbPoint
 10
380.964914128012
 20
44.57729798907178
 30
0.0
  0
POINT
  5
909D
330
8F98
100
AcDbEntity
  8
DEFPOINTS
 62
     0
100
AcDbPoint
 10
405.0350853225469
 20
44.57729798907178
 30
0.0
  0
POINT
  5
909E
330
8F98
100
AcDbEntity
  8
DEFPOINTS
 62
     0
100
AcDbPoint
 10
401.1527996460089
 20
59.06618538340786
 30
0.0
  0
POINT
  5
909F
330
8F98
100
AcDbEntity
  8
DEFPOINTS
 62
     0
100
AcDbPoint
 10
384.8471998045499
 20
59.06618538340786
 30
0.0
  0
ENDBLK
  5
8F9A
330
8F98
100
AcDbEntity
  8
0
100
AcDbBlockEnd
  0
BLOCK
  5
8FA7
330
8FA6
100
AcDbEntity
  8
0
100
AcDbBlockBegin
  2
*D10
 70
     1
 10
0.0
 20
0.0
 30
0.0
  3
*D10
  1

  0
LINE
  5
90A0
330
8FA6
100
AcDbEntity
  8
0
 62
   115
370
    -2
100
AcDbLine
 10
382.906056966281
 20
50.82174168623987
 30
0.0
 11
382.906056966281
 21
16.00000092185883
 31
0.0
  0
LINE
  5
90A1
330
8FA6
100
AcDbEntity
  8
0
 62
   115
370
    -2
100
AcDbLine
 10
403.0939424842778
 20
50.82174168623987
 30
0.0
 11
403.0939424842778
 21
16.00000092185883
 31
0.0
  0
LINE
  5
90A2
330
8FA6
100
AcDbEntity
  8
0
 62
   115
370
    -2
100
AcDbLine
 10
385.906056966281
 20
17.00000092185883
 30
0.0
 11
400.0939424842778
 21
17.00000092185883
 31
0.0
  0
SOLID
  5
90A3
330
8FA6
100
AcDbEntity
  8
0
 62
   115
100
AcDbTrace
 10
385.906056966281
 20
17.50000092185883
 30
0.0
 11
385.906056966281
 21
16.50000092185883
 31
0.0
 12
382.906056966281
 22
17.00000092185883
 32
0.0
 13
382.906056966281
 23
17.00000092185883
 33
0.0
  0
SOLID
  5
90A4
330
8FA6
100
AcDbEntity
  8
0
 62
   115
100
AcDbTrace
 10
400.0939424842778
 20
17.50000092185883
 30
0.0
 11
400.0939424842778
 21
16.50000092185883
 31
0.0
 12
403.0939424842778
 22
17.00000092185883
 32
0.0
 13
403.0939424842778
 23
17.00000092185883
 33
0.0
  0
MTEXT
  5
90A5
330
8FA6
100
AcDbEntity
  8
0
 62
     7
100
AcDbMText
 10
392.9999997252794
 20
20.28571520757311
 30
0.0
 40
3.0
 41
0.0
 71
     5
 72
     1
  1
\A1;(20.19)
 73
     1
 44
1.0
1001
ACAD
1000
MTEXTBEGIN
1070
    73
1070
     1
1070
    44
1040
1.0
1070
    74
1070
     0
1000
MTEXTEND
  0
POINT
  5
90A6
330
8FA6
100
AcDbEntity
  8
DEFPOINTS
 62
     0
100
AcDbPoint
 10
382.906056966281
 20
51.82174168623987
 30
0.0
  0
POINT
  5
90A7
330
8FA6
100
AcDbEntity
  8
DEFPOINTS
 62
     0
100
AcDbPoint
 10
403.0939424842778
 20
51.82174168623987
 30
0.0
  0
POINT
  5
90A8
330
8FA6
100
AcDbEntity
  8
DEFPOINTS
 62
     0
100
AcDbPoint
 10
403.0939424842778
 20
17.00000092185883
 30
0.0
  0
ENDBLK
  5
8FA8
330
8FA6
100
AcDbEntity
  8
0
100
AcDbBlockEnd
  0
BLOCK
  5
8FB3
330
8FB2
100
AcDbEntity
  8
0
100
AcDbBlockBegin
  2
*D11
 70
     1
 10
0.0
 20
0.0
 30
0.0
  3
*D11
  1

  0
LINE
  5
90A9
330
8FB2
100
AcDbEntity
  8
0
 62
   115
370
    -2
100
AcDbLine
 10
393.9999997252795
 20
50.49284891151353
 30
0.0
 11
446.9999997252785
 21
50.49284891151351
 31
0.0
  0
LINE
  5
90AA
330
8FB2
100
AcDbEntity
  8
0
 62
   115
370
    -2
100
AcDbLine
 10
393.9999997252795
 20
128.4928489115135
 30
0.0
 11
446.9999997252786
 21
128.4928489115135
 31
0.0
  0
LINE
  5
90AB
330
8FB2
100
AcDbEntity
  8
0
 62
   115
370
    -2
100
AcDbLine
 10
445.9999997252785
 20
53.49284891151352
 30
0.0
 11
445.9999997252785
 21
125.4928489115135
 31
0.0
  0
SOLID
  5
90AC
330
8FB2
100
AcDbEntity
  8
0
 62
   115
100
AcDbTrace
 10
445.4999997252786
 20
53.49284891151352
 30
0.0
 11
446.4999997252785
 21
53.49284891151352
 31
0.0
 12
445.9999997252785
 22
50.49284891151351
 32
0.0
 13
445.9999997252785
 23
50.49284891151351
 33
0.0
  0
SOLID
  5
90AD
330
8FB2
100
AcDbEntity
  8
0
 62
   115
100
AcDbTrace
 10
445.4999997252786
 20
125.4928489115135
 30
0.0
 11
446.4999997252785
 21
125.4928489115135
 31
0.0
 12
445.9999997252786
 22
128.4928489115135
 32
0.0
 13
445.9999997252786
 23
128.4928489115135
 33
0.0
  0
MTEXT
  5
90AE
330
8FB2
100
AcDbEntity
  8
0
 62
     7
100
AcDbMText
 10
443.4999997252786
 20
89.49284891151359
 30
0.0
 40
3.0
 41
0.0
 71
     5
 72
     1
  1
\A1;PCD 78
 11
0.0000000000000001
 21
1.0
 31
0.0
 73
     1
 44
1.0
1001
ACAD
1000
MTEXTBEGIN
1070
    73
1070
     1
1070
    44
1040
1.0
1070
    74
1070
     0
1000
MTEXTEND
  0
POINT
  5
90AF
330
8FB2
100
AcDbEntity
  8
DEFPOINTS
 62
     0
100
AcDbPoint
 10
392.9999997252794
 20
50.49284891151353
 30
0.0
  0
POINT
  5
90B0
330
8FB2
100
AcDbEntity
  8
DEFPOINTS
 62
     0
100
AcDbPoint
 10
392.9999997252794
 20
128.4928489115135
 30
0.0
  0
POINT
  5
90B1
330
8FB2
100
AcDbEntity
  8
DEFPOINTS
 62
     0
100
AcDbPoint
 10
445.9999997252786
 20
128.4928489115135
 30
0.0
  0
ENDBLK
  5
8FB4
330
8FB2
100
AcDbEntity
  8
0
100
AcDbBlockEnd
  0
BLOCK
  5
8FBF
330
8FBE
100
AcDbEntity
  8
0
100
AcDbBlockBegin
  2
*D12
 70
     1
 10
0.0
 20
0.0
 30
0.0
  3
*D12
  1

  0
LINE
  5
90B2
330
8FBE
100
AcDbEntity
  8
0
 62
   115
370
    -2
100
AcDbLine
 10
421.5771641915548
 20
112.5700133777889
 30
0.0
 11
438.9999997252786
 21
112.5700133777889
 31
0.0
  0
LINE
  5
90B3
330
8FBE
100
AcDbEntity
  8
0
 62
   115
370
    -2
100
AcDbLine
 10
421.5771641915548
 20
121.5700133777888
 30
0.0
 11
438.9999997252786
 21
121.5700133777888
 31
0.0
  0
LINE
  5
90B4
330
8FBE
100
AcDbEntity
  8
0
 62
   115
370
    -2
100
AcDbLine
 10
437.9999997252786
 20
115.5700133777889
 30
0.0
 11
437.9999997252786
 21
118.5700133777888
 31
0.0
  0
LINE
  5
90B5
330
8FBE
100
AcDbEntity
  8
0
 62
   115
370
    -2
100
AcDbLine
 10
437.9999997252786
 20
121.5700133777888
 30
0.0
 11
437.9999997252787
 21
137.5700133777889
 31
0.0
  0
SOLID
  5
90B6
330
8FBE
100
AcDbEntity
  8
0
 62
   115
100
AcDbTrace
 10
437.4999997252786
 20
115.5700133777889
 30
0.0
 11
438.4999997252786
 21
115.5700133777889
 31
0.0
 12
437.9999997252786
 22
112.5700133777889
 32
0.0
 13
437.9999997252786
 23
112.5700133777889
 33
0.0
  0
SOLID
  5
90B7
330
8FBE
100
AcDbEntity
  8
0
 62
   115
100
AcDbTrace
 10
437.4999997252786
 20
118.5700133777888
 30
0.0
 11
438.4999997252786
 21
118.5700133777888
 31
0.0
 12
437.9999997252786
 22
121.5700133777888
 32
0.0
 13
437.9999997252786
 23
121.5700133777888
 33
0.0
  0
MTEXT
  5
90B8
330
8FBE
100
AcDbEntity
  8
0
 62
     7
100
AcDbMText
 10
435.4999997252786
 20
131.0700133777889
 30
0.0
 40
3.0
 41
0.0
 71
     5
 72
     1
  1
\A1;6-%%C9
 11
0.0000000000000001
 21
1.0
 31
0.0
 73
     1
 44
1.0
1001
ACAD
1000
MTEXTBEGIN
1070
    73
1070
     1
1070
    44
1040
1.0
1070
    74
1070
     0
1000
MTEXTEND
  0
POINT
  5
90B9
330
8FBE
100
AcDbEntity
  8
DEFPOINTS
 62
     0
100
AcDbPoint
 10
420.5771641915547
 20
112.5700133777889
 30
0.0
  0
POINT
  5
90BA
330
8FBE
100
AcDbEntity
  8
DEFPOINTS
 62
     0
100
AcDbPoint
 10
420.5771641915547
 20
121.5700133777888
 30
0.0
  0
POINT
  5
90BB
330
8FBE
100
AcDbEntity
  8
DEFPOINTS
 62
     0
100
AcDbPoint
 10
437.9999997252786
 20
121.5700133777888
 30
0.0
  0
ENDBLK
  5
8FC0
330
8FBE
100
AcDbEntity
  8
0
100
AcDbBlockEnd
  0
BLOCK
  5
8FCC
330
8FCB
100
AcDbEntity
  8
0
100
AcDbBlockBegin
  2
*D13
 70
     1
 10
0.0
 20
0.0
 30
0.0
  3
*D13
  1

  0
LINE
  5
9554
330
8FCB
100
AcDbEntity
  8
0
 62
   115
370
    -2
100
AcDbLine
 10
206.9999998752795
 20
58.01597836151365
 30
0.0
 11
217.9999998752796
 21
58.01597836151364
 31
0.0
  0
LINE
  5
9555
330
8FCB
100
AcDbEntity
  8
0
 62
   115
370
    -2
100
AcDbLine
 10
206.9999998752795
 20
121.0159734615138
 30
0.0
 11
217.9999998752796
 21
121.0159734615138
 31
0.0
  0
LINE
  5
9556
330
8FCB
100
AcDbEntity
  8
0
 62
   115
370
    -2
100
AcDbLine
 10
216.9999998752795
 20
61.01597836151364
 30
0.0
 11
216.9999998752796
 21
118.0159734615138
 31
0.0
  0
SOLID
  5
9557
330
8FCB
100
AcDbEntity
  8
0
 62
   115
100
AcDbTrace
 10
216.4999998752795
 20
61.01597836151364
 30
0.0
 11
217.4999998752795
 21
61.01597836151364
 31
0.0
 12
216.9999998752795
 22
58.01597836151364
 32
0.0
 13
216.9999998752795
 23
58.01597836151364
 33
0.0
  0
SOLID
  5
9558
330
8FCB
100
AcDbEntity
  8
0
 62
   115
100
AcDbTrace
 10
216.4999998752796
 20
118.0159734615138
 30
0.0
 11
217.4999998752796
 21
118.0159734615138
 31
0.0
 12
216.9999998752796
 22
121.0159734615138
 32
0.0
 13
216.9999998752796
 23
121.0159734615138
 33
0.0
  0
MTEXT
  5
9559
330
8FCB
100
AcDbEntity
  8
0
 62
     7
100
AcDbMText
 10
213.7142855895653
 20
89.51597591151374
 30
0.0
 40
3.0
 41
0.0
 71
     5
 72
     1
  1
\A1;%%C63 g6 ({\H0.5x;\S-0.010^ -0.029;})
 11
0.0000000000000001
 21
1.0
 31
0.0
 73
     1
 44
1.0
1001
ACAD
1000
MTEXTBEGIN
1070
    73
1070
     1
1070
    44
1040
1.0
1070
    74
1070
     0
1000
MTEXTEND
  0
POINT
  5
955A
330
8FCB
100
AcDbEntity
  8
DEFPOINTS
 62
     0
100
AcDbPoint
 10
205.9999998752795
 20
58.01597836151365
 30
0.0
  0
POINT
  5
955B
330
8FCB
100
AcDbEntity
  8
DEFPOINTS
 62
     0
100
AcDbPoint
 10
205.9999998752795
 20
121.0159734615138
 30
0.0
  0
POINT
  5
955C
330
8FCB
100
AcDbEntity
  8
DEFPOINTS
 62
     0
100
AcDbPoint
 10
216.9999998752796
 20
121.0159734615138
 30
0.0
  0
ENDBLK
  5
8FCD
330
8FCB
100
AcDbEntity
  8
0
100
AcDbBlockEnd
  0
BLOCK
  5
8FE4
330
8FE3
100
AcDbEntity
  8
0
100
AcDbBlockBegin
  2
*D14
 70
     1
 10
0.0
 20
0.0
 30
0.0
  3
*D14
  1

  0
LINE
  5
9539
330
8FE3
100
AcDbEntity
  8
0
 62
   115
370
    -2
100
AcDbLine
 10
194.0000058752795
 20
43.0000009218586
 30
0.0
 11
194.0000058752795
 21
32.00000092185849
 31
0.0
  0
LINE
  5
953A
330
8FE3
100
AcDbEntity
  8
0
 62
   115
370
    -2
100
AcDbLine
 10
206.9999998752795
 20
58.01597836151365
 30
0.0
 11
206.9999998752795
 21
32.00000092185849
 31
0.0
  0
LINE
  5
953B
330
8FE3
100
AcDbEntity
  8
0
 62
   115
370
    -2
100
AcDbLine
 10
197.0000058752795
 20
33.00000092185849
 30
0.0
 11
203.9999998752795
 21
33.00000092185849
 31
0.0
  0
SOLID
  5
953C
330
8FE3
100
AcDbEntity
  8
0
 62
   115
100
AcDbTrace
 10
197.0000058752795
 20
33.50000092185849
 30
0.0
 11
197.0000058752795
 21
32.50000092185849
 31
0.0
 12
194.0000058752795
 22
33.00000092185849
 32
0.0
 13
194.0000058752795
 23
33.00000092185849
 33
0.0
  0
SOLID
  5
953D
330
8FE3
100
AcDbEntity
  8
0
 62
   115
100
AcDbTrace
 10
203.9999998752795
 20
33.50000092185849
 30
0.0
 11
203.9999998752795
 21
32.50000092185849
 31
0.0
 12
206.9999998752795
 22
33.00000092185849
 32
0.0
 13
206.9999998752795
 23
33.00000092185849
 33
0.0
  0
MTEXT
  5
953E
330
8FE3
100
AcDbEntity
  8
0
 62
     7
100
AcDbMText
 10
200.5000028752795
 20
35.50000092185849
 30
0.0
 40
3.0
 41
0.0
 71
     5
 72
     1
  1
\A1;13
 73
     1
 44
1.0
1001
ACAD
1000
MTEXTBEGIN
1070
    73
1070
     1
1070
    44
1040
1.0
1070
    74
1070
     0
1000
MTEXTEND
  0
POINT
  5
953F
330
8FE3
100
AcDbEntity
  8
DEFPOINTS
 62
     0
100
AcDbPoint
 10
194.0000058752795
 20
44.0000009218586
 30
0.0
  0
POINT
  5
9540
330
8FE3
100
AcDbEntity
  8
DEFPOINTS
 62
     0
100
AcDbPoint
 10
206.9999998752795
 20
59.01597836151364
 30
0.0
  0
POINT
  5
9541
330
8FE3
100
AcDbEntity
  8
DEFPOINTS
 62
     0
100
AcDbPoint
 10
206.9999998752795
 20
33.00000092185849
 30
0.0
  0
ENDBLK
  5
8FE5
330
8FE3
100
AcDbEntity
  8
0
100
AcDbBlockEnd
  0
BLOCK
  5
8FF1
330
8FF0
100
AcDbEntity
  8
0
100
AcDbBlockBegin
  2
*D15
 70
     1
 10
0.0
 20
0.0
 30
0.0
  3
*D15
  1

  0
LINE
  5
9494
330
8FF0
100
AcDbEntity
  8
0
 62
   115
370
    -2
100
AcDbLine
 10
194.0000058752795
 20
43.00000092185848
 30
0.0
 11
225.9999998752795
 21
43.00000092185848
 31
0.0
  0
LINE
  5
9495
330
8FF0
100
AcDbEntity
  8
0
 62
   115
370
    -2
100
AcDbLine
 10
194.0000058752795
 20
136.0000009218586
 30
0.0
 11
225.9999998752795
 21
136.0000009218586
 31
0.0
  0
LINE
  5
9496
330
8FF0
100
AcDbEntity
  8
0
 62
   115
370
    -2
100
AcDbLine
 10
224.9999998752795
 20
46.00000092185847
 30
0.0
 11
224.9999998752795
 21
133.0000009218586
 31
0.0
  0
SOLID
  5
9497
330
8FF0
100
AcDbEntity
  8
0
 62
   115
100
AcDbTrace
 10
224.4999998752795
 20
46.00000092185847
 30
0.0
 11
225.4999998752795
 21
46.00000092185847
 31
0.0
 12
224.9999998752795
 22
43.00000092185848
 32
0.0
 13
224.9999998752795
 23
43.00000092185848
 33
0.0
  0
SOLID
  5
9498
330
8FF0
100
AcDbEntity
  8
0
 62
   115
100
AcDbTrace
 10
224.4999998752795
 20
133.0000009218586
 30
0.0
 11
225.4999998752795
 21
133.0000009218586
 31
0.0
 12
224.9999998752795
 22
136.0000009218586
 32
0.0
 13
224.9999998752795
 23
136.0000009218586
 33
0.0
  0
MTEXT
  5
9499
330
8FF0
100
AcDbEntity
  8
0
 62
     7
100
AcDbMText
 10
222.4999998752795
 20
89.50000092185858
 30
0.0
 40
3.0
 41
0.0
 71
     5
 72
     1
  1
\A1;%%C93
 11
0.0000000000000001
 21
1.0
 31
0.0
 73
     1
 44
1.0
1001
ACAD
1000
MTEXTBEGIN
1070
    73
1070
     1
1070
    44
1040
1.0
1070
    74
1070
     0
1000
MTEXTEND
  0
POINT
  5
949A
330
8FF0
100
AcDbEntity
  8
DEFPOINTS
 62
     0
100
AcDbPoint
 10
193.0000058752795
 20
43.00000092185848
 30
0.0
  0
POINT
  5
949B
330
8FF0
100
AcDbEntity
  8
DEFPOINTS
 62
     0
100
AcDbPoint
 10
193.0000058752795
 20
136.0000009218586
 30
0.0
  0
POINT
  5
949C
330
8FF0
100
AcDbEntity
  8
DEFPOINTS
 62
     0
100
AcDbPoint
 10
224.9999998752795
 20
136.0000009218586
 30
0.0
  0
ENDBLK
  5
8FF2
330
8FF0
100
AcDbEntity
  8
0
100
AcDbBlockEnd
  0
BLOCK
  5
8FFD
330
8FFC
100
AcDbEntity
  8
0
100
AcDbBlockBegin
  2
*D16
 70
     1
 10
0.0
 20
0.0
 30
0.0
  3
*D16
  1

  0
LINE
  5
90E1
330
8FFC
100
AcDbEntity
  8
0
 62
   115
370
    -2
100
AcDbLine
 10
379.5256240912454
 20
122.723750940676
 30
0.0
 11
409.0982483577547
 21
139.7975135961995
 31
0.0
  0
LINE
  5
90E2
330
8FFC
100
AcDbEntity
  8
0
 62
   115
370
    -2
100
AcDbLine
 10
379.348676262994
 20
134.1685954481944
 30
0.0
 11
404.0982483466369
 21
148.4577676154561
 31
0.0
  0
LINE
  5
90E3
330
8FFC
100
AcDbEntity
  8
0
 62
   115
370
    -2
100
AcDbLine
 10
406.7322229500002
 20
141.8955898030758
 30
0.0
 11
404.7322229487146
 21
145.3596914053024
 31
0.0
  0
SOLID
  5
90E4
330
8FFC
100
AcDbEntity
  8
0
 62
   115
100
AcDbTrace
 10
407.1652356514193
 20
142.1455898038952
 30
0.0
 11
406.299210248581
 21
141.6455898022564
 31
0.0
 12
408.2322229549164
 22
139.2975135945609
 32
0.0
 13
408.2322229549164
 23
139.2975135945609
 33
0.0
  0
SOLID
  5
90E5
330
8FFC
100
AcDbEntity
  8
0
 62
   115
100
AcDbTrace
 10
405.1652356501338
 20
145.6096914061218
 30
0.0
 11
404.2992102472955
 21
145.109691404483
 31
0.0
 12
403.2322229437985
 22
147.9577676138173
 32
0.0
 13
403.2322229437985
 23
147.9577676138173
 33
0.0
  0
MTEXT
  5
90E6
330
8FFC
100
AcDbEntity
  8
0
 62
     7
100
AcDbMText
 10
407.8972864564533
 20
144.8776406082859
 30
0.0
 40
3.0
 41
0.0
 71
     5
 72
     1
  1
\A1;10
 11
0.5000000016387153
 21
-0.866025402838326
 31
0.0
 73
     1
 44
1.0
1001
ACAD
1000
MTEXTBEGIN
1070
    73
1070
     1
1070
    44
1040
1.0
1070
    74
1070
     0
1000
MTEXTEND
  0
POINT
  5
90E7
330
8FFC
100
AcDbEntity
  8
DEFPOINTS
 62
     0
100
AcDbPoint
 10
378.6595986884071
 20
122.2237509390372
 30
0.0
  0
POINT
  5
90E8
330
8FFC
100
AcDbEntity
  8
DEFPOINTS
 62
     0
100
AcDbPoint
 10
378.4826508601557
 20
133.6685954465557
 30
0.0
  0
POINT
  5
90E9
330
8FFC
100
AcDbEntity
  8
DEFPOINTS
 62
     0
100
AcDbPoint
 10
403.2322229437985
 20
147.9577676138173
 30
0.0
  0
ENDBLK
  5
8FFE
330
8FFC
100
AcDbEntity
  8
0
100
AcDbBlockEnd
  0
BLOCK
  5
9009
330
9008
100
AcDbEntity
  8
0
100
AcDbBlockBegin
  2
*D17
 70
     1
 10
0.0
 20
0.0
 30
0.0
  3
*D17
  1

  0
LINE
  5
90EA
330
9008
100
AcDbEntity
  8
0
 62
   115
370
    -2
100
AcDbLine
 10
373.1578597103963
 20
131.7530423067052
 30
0.0
 11
368.1595984743269
 21
140.4102843734888
 31
0.0
  0
LINE
  5
90EB
330
9008
100
AcDbEntity
  8
0
 62
   115
370
    -2
100
AcDbLine
 10
366.2296567103963
 20
127.7530423067052
 30
0.0
 11
361.2313954855001
 21
136.4102843541363
 31
0.0
  0
LINE
  5
90EC
330
9008
100
AcDbEntity
  8
0
 62
   115
370
    -2
100
AcDbLine
 10
371.257674674785
 20
141.0442590229464
 30
0.0
 11
373.8557508603601
 21
142.5442590675956
 31
0.0
  0
LINE
  5
90ED
330
9008
100
AcDbEntity
  8
0
 62
   115
370
    -2
100
AcDbLine
 10
359.1333193148081
 20
134.0442589142953
 30
0.0
 11
346.3903742141305
 21
126.6871158381584
 31
0.0
  0
LINE
  5
90EE
330
9008
100
AcDbEntity
  8
0
 62
   115
370
    -2
100
AcDbLine
 10
368.65959848921
 20
139.5442589782971
 30
0.0
 11
361.7313955003831
 21
135.5442589589446
 31
0.0
  0
SOLID
  5
90EF
330
9008
100
AcDbEntity
  8
0
 62
   115
100
AcDbTrace
 10
371.0076746673435
 20
141.4772717205422
 30
0.0
 11
371.5076746822266
 21
140.6112463253505
 31
0.0
 12
368.65959848921
 22
139.5442589782971
 32
0.0
 13
368.65959848921
 23
139.5442589782971
 33
0.0
  0
SOLID
  5
90F0
330
9008
100
AcDbEntity
  8
0
 62
   115
100
AcDbTrace
 10
358.8833193073666
 20
134.4772716118911
 30
0.0
 11
359.3833193222496
 21
133.6112462166994
 31
0.0
 12
361.7313955003831
 22
135.5442589589446
 32
0.0
 13
361.7313955003831
 23
135.5442589589446
 33
0.0
  0
MTEXT
  5
90F1
330
9008
100
AcDbEntity
  8
0
 62
     7
100
AcDbMText
 10
350.2128086344741
 20
131.7807508418814
 30
0.0
 40
3.0
 41
0.0
 71
     5
 72
     1
  1
\A1;M8x1
 11
0.8660253951916816
 21
0.5000000148830914
 31
0.0
 73
     1
 44
1.0
1001
ACAD
1000
MTEXTBEGIN
1070
    73
1070
     1
1070
    44
1040
1.0
1070
    74
1070
     0
1000
MTEXTEND
  0
POINT
  5
90F2
330
9008
100
AcDbEntity
  8
DEFPOINTS
 62
     0
100
AcDbPoint
 10
373.6578597252794
 20
130.8870169115135
 30
0.0
  0
POINT
  5
90F3
330
9008
100
AcDbEntity
  8
DEFPOINTS
 62
     0
100
AcDbPoint
 10
366.7296567252794
 20
126.8870169115135
 30
0.0
  0
POINT
  5
90F4
330
9008
100
AcDbEntity
  8
DEFPOINTS
 62
     0
100
AcDbPoint
 10
361.7313955003831
 20
135.5442589589446
 30
0.0
  0
ENDBLK
  5
900A
330
9008
100
AcDbEntity
  8
0
100
AcDbBlockEnd
  0
BLOCK
  5
9017
330
9016
100
AcDbEntity
  8
0
100
AcDbBlockBegin
  2
*D18
 70
     1
 10
0.0
 20
0.0
 30
0.0
  3
*D18
  1

  0
LINE
  5
90F5
330
9016
100
AcDbEntity
  8
0
 62
   115
370
    -2
100
AcDbLine
 10
392.9999997252794
 20
139.9928489115135
 30
0.0
 11
392.9999997252795
 21
154.3321390026897
 31
0.0
  0
LINE
  5
90F6
330
9016
100
AcDbEntity
  8
0
 62
   115
370
    -2
100
AcDbLine
 10
368.2303577351653
 20
132.3682334045487
 30
0.0
 11
360.5669077201245
 21
145.6417181918644
 31
0.0
  0
ARC
  5
90F7
330
9016
100
AcDbEntity
  8
0
 62
   115
370
    -2
100
AcDbCircle
 10
392.9999997252794
 20
89.46595499237821
 30
0.0
 40
63.86618401031152
100
AcDbArc
 50
92.69161447324732
 51
117.3083855267517
  0
SOLID
  5
90F8
330
9016
100
AcDbEntity
  8
0
 62
   115
100
AcDbTrace
 10
389.9890839667414
 20
153.7615412558126
 30
0.0
 11
390.0125705742983
 21
152.7618171042261
 31
0.0
 12
392.9999997252795
 22
153.3321390026897
 32
0.0
 13
392.9999997252795
 23
153.3321390026897
 33
0.0
  0
SOLID
  5
90F9
330
9016
100
AcDbEntity
  8
0
 62
   115
100
AcDbTrace
 10
363.9392582061123
 20
145.7754941111664
 30
0.0
 11
363.4597361291119
 21
146.6530239269957
 31
0.0
 12
361.0669077201245
 22
144.7756927880799
 32
0.0
 13
361.0669077201245
 23
144.7756927880799
 33
0.0
  0
MTEXT
  5
90FA
102
{ACAD_XDICTIONARY
360
98A2
102
}
330
9016
100
AcDbEntity
  8
0
 62
     7
100
AcDbMText
 10
375.8231673526329
 20
153.5707661201908
 30
0.0
 40
3.0
 41
0.0
 71
     5
 72
     1
  1
\A1;30\U+00B0
 11
0.9659258262890698
 21
0.2588190451025145
 31
0.0
 73
     1
 44
1.0
1001
ACAD
1000
MTEXTBEGIN
1070
    73
1070
     1
1070
    44
1040
1.0
1070
    74
1070
     0
1000
MTEXTEND
  0
POINT
  5
90FB
330
9016
100
AcDbEntity
  8
DEFPOINTS
 62
     0
100
AcDbPoint
 10
381.9097532573484
 20
152.3618681610373
 30
0.0
  0
POINT
  5
90FC
330
9016
100
AcDbEntity
  8
DEFPOINTS
 62
     0
100
AcDbPoint
 10
368.7303577351652
 20
131.5022080007643
 30
0.0
  0
POINT
  5
90FD
330
9016
100
AcDbEntity
  8
DEFPOINTS
 62
     0
100
AcDbPoint
 10
392.9999997252794
 20
39.99284891151352
 30
0.0
  0
POINT
  5
90FE
330
9016
100
AcDbEntity
  8
DEFPOINTS
 62
     0
100
AcDbPoint
 10
392.9999997252794
 20
138.9928489115135
 30
0.0
  0
POINT
  5
90FF
330
9016
100
AcDbEntity
  8
DEFPOINTS
 62
     0
100
AcDbPoint
 10
379.3303570080666
 20
113.1424706999054
 30
0.0
  0
ENDBLK
  5
9018
330
9016
100
AcDbEntity
  8
0
100
AcDbBlockEnd
  0
BLOCK
  5
9025
330
9024
100
AcDbEntity
  8
0
100
AcDbBlockBegin
  2
*D19
 70
     1
 10
0.0
 20
0.0
 30
0.0
  3
*D19
  1

  0
LINE
  5
9100
330
9024
100
AcDbEntity
  8
0
 62
   115
370
    -2
100
AcDbLine
 10
364.4228352590041
 20
61.91568444523818
 30
0.0
 11
346.9999997252793
 21
61.91568444523818
 31
0.0
  0
LINE
  5
9101
330
9024
100
AcDbEntity
  8
0
 62
   115
370
    -2
100
AcDbLine
 10
364.4228352590041
 20
117.0700133777889
 30
0.0
 11
346.9999997252793
 21
117.0700133777889
 31
0.0
  0
LINE
  5
9102
330
9024
100
AcDbEntity
  8
0
 62
   115
370
    -2
100
AcDbLine
 10
347.9999997252793
 20
64.9156844452382
 30
0.0
 11
347.9999997252793
 21
114.0700133777889
 31
0.0
  0
SOLID
  5
9103
330
9024
100
AcDbEntity
  8
0
 62
   115
100
AcDbTrace
 10
347.4999997252794
 20
64.9156844452382
 30
0.0
 11
348.4999997252793
 21
64.9156844452382
 31
0.0
 12
347.9999997252793
 22
61.91568444523818
 32
0.0
 13
347.9999997252793
 23
61.91568444523818
 33
0.0
  0
SOLID
  5
9104
330
9024
100
AcDbEntity
  8
0
 62
   115
100
AcDbTrace
 10
347.4999997252794
 20
114.0700133777889
 30
0.0
 11
348.4999997252793
 21
114.0700133777889
 31
0.0
 12
347.9999997252793
 22
117.0700133777889
 32
0.0
 13
347.9999997252793
 23
117.0700133777889
 33
0.0
  0
MTEXT
  5
9105
330
9024
100
AcDbEntity
  8
0
 62
     7
100
AcDbMText
 10
344.7142854395651
 20
89.49284891151361
 30
0.0
 40
3.0
 41
0.0
 71
     5
 72
     1
  1
\A1;(55.15)
 11
0.0000000000000001
 21
1.0
 31
0.0
 73
     1
 44
1.0
1001
ACAD
1000
MTEXTBEGIN
1070
    73
1070
     1
1070
    44
1040
1.0
1070
    74
1070
     0
1000
MTEXTEND
  0
POINT
  5
9106
330
9024
100
AcDbEntity
  8
DEFPOINTS
 62
     0
100
AcDbPoint
 10
365.4228352590041
 20
61.91568444523818
 30
0.0
  0
POINT
  5
9107
330
9024
100
AcDbEntity
  8
DEFPOINTS
 62
     0
100
AcDbPoint
 10
365.4228352590041
 20
117.0700133777889
 30
0.0
  0
POINT
  5
9108
330
9024
100
AcDbEntity
  8
DEFPOINTS
 62
     0
100
AcDbPoint
 10
347.9999997252793
 20
117.0700133777889
 30
0.0
  0
ENDBLK
  5
9026
330
9024
100
AcDbEntity
  8
0
100
AcDbBlockEnd
  0
BLOCK
  5
9031
330
9030
100
AcDbEntity
  8
0
100
AcDbBlockBegin
  2
*D20
 70
     1
 10
0.0
 20
0.0
 30
0.0
  3
*D20
  1

  0
LINE
  5
9109
330
9030
100
AcDbEntity
  8
0
 62
   115
370
    -2
100
AcDbLine
 10
359.4124276189184
 20
55.90527680515254
 30
0.0
 11
347.7552873411936
 21
44.24813652742783
 31
0.0
  0
LINE
  5
910A
330
9030
100
AcDbEntity
  8
0
 62
   115
370
    -2
100
AcDbLine
 10
426.5875718316404
 20
55.90527680515254
 30
0.0
 11
438.2447121093653
 21
44.24813652742781
 31
0.0
  0
ARC
  5
910B
330
9030
100
AcDbEntity
  8
0
 62
   115
370
    -2
100
AcDbCircle
 10
392.9999997252794
 20
89.49284891151341
 30
0.0
 40
62.98568587924395
100
AcDbArc
 50
227.729248526397
 51
312.2707514736029
  0
SOLID
  5
910C
330
9030
100
AcDbEntity
  8
0
 62
   115
100
AcDbTrace
 10
350.2885986652643
 20
42.5231707423554
 30
0.0
 11
350.9786651979491
 21
43.24691667876424
 31
0.0
 12
348.4623941223802
 22
44.95524330861438
 32
0.0
 13
348.4623941223802
 23
44.95524330861438
 33
0.0
  0
SOLID
  5
910D
330
9030
100
AcDbEntity
  8
0
 62
   115
100
AcDbTrace
 10
435.0213342526098
 20
43.24691667876422
 30
0.0
 11
435.7114007852946
 21
42.52317074235538
 31
0.0
 12
437.5376053281788
 22
44.95524330861435
 32
0.0
 13
437.5376053281788
 23
44.95524330861435
 33
0.0
  0
MTEXT
  5
910E
102
{ACAD_XDICTIONARY
360
98A4
102
}
330
9030
100
AcDbEntity
  8
0
 62
     7
100
AcDbMText
 10
392.9999997252794
 20
29.00716303226947
 30
0.0
 40
3.0
 41
0.0
 71
     5
 72
     1
  1
\A1;90\U+00B0
 73
     1
 44
1.0
1001
ACAD
1000
MTEXTBEGIN
1070
    73
1070
     1
1070
    44
1040
1.0
1070
    74
1070
     0
1000
MTEXTEND
  0
POINT
  5
910F
330
9030
100
AcDbEntity
  8
DEFPOINTS
 62
     0
100
AcDbPoint
 10
376.6981046508862
 20
28.65334823422101
 30
0.0
  0
POINT
  5
9110
330
9030
100
AcDbEntity
  8
DEFPOINTS
 62
     0
100
AcDbPoint
 10
360.119534400105
 20
56.61238358633909
 30
0.0
  0
POINT
  5
9111
330
9030
100
AcDbEntity
  8
DEFPOINTS
 62
     0
100
AcDbPoint
 10
425.8804650504539
 20
56.61238358633909
 30
0.0
  0
POINT
  5
9112
330
9030
100
AcDbEntity
  8
DEFPOINTS
 62
     0
100
AcDbPoint
 10
415.2738633326556
 20
67.21898530413728
 30
0.0
  0
POINT
  5
9113
330
9030
100
AcDbEntity
  8
DEFPOINTS
 62
     0
100
AcDbPoint
 10
370.7261361179032
 20
67.21898530413728
 30
0.0
  0
ENDBLK
  5
9032
330
9030
100
AcDbEntity
  8
0
100
AcDbBlockEnd
  0
BLOCK
  5
903F
330
903E
100
AcDbEntity
  8
0
100
AcDbBlockBegin
  2
*D21
 70
     1
 10
0.0
 20
0.0
 30
0.0
  3
*D21
  1

  0
LINE
  5
9114
330
903E
100
AcDbEntity
  8
0
 62
   115
370
    -2
100
AcDbLine
 10
365.4228352590041
 20
60.91568444523819
 30
0.0
 11
365.4228352590041
 21
8.000000921858827
 31
0.0
  0
LINE
  5
9115
330
903E
100
AcDbEntity
  8
0
 62
   115
370
    -2
100
AcDbLine
 10
420.5575082252795
 20
60.92281141151364
 30
0.0
 11
420.5575082252795
 21
8.000000921858827
 31
0.0
  0
LINE
  5
9116
330
903E
100
AcDbEntity
  8
0
 62
   115
370
    -2
100
AcDbLine
 10
368.4228352590041
 20
9.000000921858827
 30
0.0
 11
417.5575082252795
 21
9.000000921858827
 31
0.0
  0
SOLID
  5
9117
330
903E
100
AcDbEntity
  8
0
 62
   115
100
AcDbTrace
 10
368.4228352590041
 20
9.500000921858827
 30
0.0
 11
368.4228352590041
 21
8.500000921858827
 31
0.0
 12
365.4228352590041
 22
9.000000921858827
 32
0.0
 13
365.4228352590041
 23
9.000000921858827
 33
0.0
  0
SOLID
  5
9118
330
903E
100
AcDbEntity
  8
0
 62
   115
100
AcDbTrace
 10
417.5575082252795
 20
9.500000921858827
 30
0.0
 11
417.5575082252795
 21
8.500000921858827
 31
0.0
 12
420.5575082252795
 22
9.000000921858827
 32
0.0
 13
420.5575082252795
 23
9.000000921858827
 33
0.0
  0
MTEXT
  5
9119
330
903E
100
AcDbEntity
  8
0
 62
     7
100
AcDbMText
 10
392.9901717421418
 20
12.28571520757311
 30
0.0
 40
3.0
 41
0.0
 71
     5
 72
     1
  1
\A1;(55.13)
 73
     1
 44
1.0
1001
ACAD
1000
MTEXTBEGIN
1070
    73
1070
     1
1070
    44
1040
1.0
1070
    74
1070
     0
1000
MTEXTEND
  0
POINT
  5
911A
330
903E
100
AcDbEntity
  8
DEFPOINTS
 62
     0
100
AcDbPoint
 10
365.4228352590041
 20
61.91568444523818
 30
0.0
  0
POINT
  5
911B
330
903E
100
AcDbEntity
  8
DEFPOINTS
 62
     0
100
AcDbPoint
 10
420.5575082252795
 20
61.92281141151363
 30
0.0
  0
POINT
  5
911C
330
903E
100
AcDbEntity
  8
DEFPOINTS
 62
     0
100
AcDbPoint
 10
420.5575082252795
 20
9.000000921858827
 30
0.0
  0
ENDBLK
  5
9040
330
903E
100
AcDbEntity
  8
0
100
AcDbBlockEnd
  0
BLOCK
  5
904B
330
904A
100
AcDbEntity
  8
0
100
AcDbBlockBegin
  2
*D22
 70
     1
 10
0.0
 20
0.0
 30
0.0
  3
*D22
  1

  0
LINE
  5
911D
330
904A
100
AcDbEntity
  8
0
 62
   115
370
    -2
100
AcDbLine
 10
381.9060569662809
 20
51.82174168623976
 30
0.0
 11
338.9999997252794
 21
51.82174168623976
 31
0.0
  0
LINE
  5
911E
330
904A
100
AcDbEntity
  8
0
 62
   115
370
    -2
100
AcDbLine
 10
381.9060569662811
 20
127.1639561367872
 30
0.0
 11
338.9999997252794
 21
127.1639561367872
 31
0.0
  0
LINE
  5
911F
330
904A
100
AcDbEntity
  8
0
 62
   115
370
    -2
100
AcDbLine
 10
339.9999997252793
 20
54.82174168623977
 30
0.0
 11
339.9999997252793
 21
124.1639561367872
 31
0.0
  0
SOLID
  5
9120
330
904A
100
AcDbEntity
  8
0
 62
   115
100
AcDbTrace
 10
339.4999997252793
 20
54.82174168623977
 30
0.0
 11
340.4999997252793
 21
54.82174168623977
 31
0.0
 12
339.9999997252793
 22
51.82174168623976
 32
0.0
 13
339.9999997252793
 23
51.82174168623976
 33
0.0
  0
SOLID
  5
9121
330
904A
100
AcDbEntity
  8
0
 62
   115
100
AcDbTrace
 10
339.4999997252793
 20
124.1639561367872
 30
0.0
 11
340.4999997252793
 21
124.1639561367872
 31
0.0
 12
339.9999997252793
 22
127.1639561367872
 32
0.0
 13
339.9999997252793
 23
127.1639561367872
 33
0.0
  0
MTEXT
  5
9122
330
904A
100
AcDbEntity
  8
0
 62
     7
100
AcDbMText
 10
336.714285439565
 20
89.49284891151355
 30
0.0
 40
3.0
 41
0.0
 71
     5
 72
     1
  1
\A1;(75.34)
 11
0.0000000000000001
 21
1.0
 31
0.0
 73
     1
 44
1.0
1001
ACAD
1000
MTEXTBEGIN
1070
    73
1070
     1
1070
    44
1040
1.0
1070
    74
1070
     0
1000
MTEXTEND
  0
POINT
  5
9123
330
904A
100
AcDbEntity
  8
DEFPOINTS
 62
     0
100
AcDbPoint
 10
382.9060569662809
 20
51.82174168623976
 30
0.0
  0
POINT
  5
9124
330
904A
100
AcDbEntity
  8
DEFPOINTS
 62
     0
100
AcDbPoint
 10
382.9060569662811
 20
127.1639561367872
 30
0.0
  0
POINT
  5
9125
330
904A
100
AcDbEntity
  8
DEFPOINTS
 62
     0
100
AcDbPoint
 10
339.9999997252793
 20
127.1639561367872
 30
0.0
  0
ENDBLK
  5
904C
330
904A
100
AcDbEntity
  8
0
100
AcDbBlockEnd
  0
BLOCK
  5
943A
330
9439
100
AcDbEntity
  8
0
100
AcDbBlockBegin
  2
4020SDH
 70
     0
 10
0.0
 20
0.0
 30
0.0
  3
4020SDH
  1

  0
TEXT
  5
970F
330
9439
100
AcDbEntity
  8
0
100
AcDbText
 10
140.6414205885465
 20
287.515976761513
 30
0.0
 40
4.0
  1
SDH4020
 72
     4
 11
154.2604682075941
 21
289.5159767615131
 31
0.0
100
AcDbText
  0
LINE
  5
9710
330
9439
100
AcDbEntity
  8
0
100
AcDbLine
 10
181.0000058752795
 20
243.0000009218586
 30
0.0
 11
181.0000058752795
 21
258.8854618921753
 31
0.0
  0
LINE
  5
9711
330
9439
100
AcDbEntity
  8
0
100
AcDbLine
 10
181.0000058752795
 20
320.1145399515419
 30
0.0
 11
181.0000058752795
 21
336.0000009218587
 31
0.0
  0
LINE
  5
9712
330
9439
100
AcDbEntity
  8
0
100
AcDbLine
 10
180.0000058752795
 20
244.0000009218585
 30
0.0
 11
180.0000058752795
 21
335.0000009218586
 31
0.0
  0
LINE
  5
9713
330
9439
100
AcDbEntity
  8
0
100
AcDbLine
 10
181.0000058752795
 20
336.0000009218587
 30
0.0
 11
180.0000058752795
 21
335.0000009218586
 31
0.0
  0
LINE
  5
9714
330
9439
100
AcDbEntity
  8
0
100
AcDbLine
 10
181.0000058752795
 20
243.0000009218586
 30
0.0
 11
180.0000058752795
 21
244.0000009218585
 31
0.0
  0
LINE
  5
9715
330
9439
100
AcDbEntity
  8
0
100
AcDbLine
 10
124.9999995752794
 20
321.0159644615137
 30
0.0
 11
124.9999995752794
 21
258.0159722615137
 31
0.0
  0
LINE
  5
9716
330
9439
100
AcDbEntity
  8
0
100
AcDbLine
 10
205.9999998752795
 20
321.0159734615138
 30
0.0
 11
205.9999998752795
 21
258.0159783615137
 31
0.0
  0
LINE
  5
9717
330
9439
100
AcDbEntity
  8
0
100
AcDbLine
 10
194.0000058752795
 20
244.0000009218586
 30
0.0
 11
194.0000058752795
 21
335.0000009218586
 31
0.0
  0
LINE
  5
9718
330
9439
100
AcDbEntity
  8
0
100
AcDbLine
 10
193.0000058752795
 20
336.0000009218586
 30
0.0
 11
194.0000058752795
 21
335.0000009218586
 31
0.0
  0
LINE
  5
9719
330
9439
100
AcDbEntity
  8
0
100
AcDbLine
 10
193.0000058752795
 20
243.0000009218586
 30
0.0
 11
194.0000058752795
 21
244.0000009218586
 31
0.0
  0
LINE
  5
971A
330
9439
100
AcDbEntity
  8
0
100
AcDbLine
 10
193.0000058752795
 20
336.0000009218586
 30
0.0
 11
193.0000058752795
 21
320.1145399515418
 31
0.0
  0
LINE
  5
971B
330
9439
100
AcDbEntity
  8
0
100
AcDbLine
 10
193.0000058752795
 20
258.8854618921754
 30
0.0
 11
193.0000058752795
 21
243.0000009218586
 31
0.0
  0
LINE
  5
971C
330
9439
100
AcDbEntity
  8
0
100
AcDbLine
 10
123.9999995752794
 20
259.0159722615137
 30
0.0
 11
123.9999995752795
 21
320.0159644615137
 31
0.0
  0
LINE
  5
971D
330
9439
100
AcDbEntity
  8
0
100
AcDbLine
 10
124.9999995752794
 20
258.0159722615137
 30
0.0
 11
123.9999995752794
 21
259.0159722615137
 31
0.0
  0
LINE
  5
971E
330
9439
100
AcDbEntity
  8
0
100
AcDbLine
 10
124.9999995752795
 20
321.0159644615138
 30
0.0
 11
123.9999995752795
 21
320.0159644615137
 31
0.0
  0
LINE
  5
971F
330
9439
100
AcDbEntity
  8
0
100
AcDbLine
 10
124.9999995752795
 20
321.0159644615138
 30
0.0
 11
179.7938955835752
 21
321.0159644615138
 31
0.0
  0
LINE
  5
9720
330
9439
100
AcDbEntity
  8
0
100
AcDbLine
 10
181.0000058752795
 20
336.0000009218587
 30
0.0
 11
193.0000058752795
 21
336.0000009218586
 31
0.0
  0
LINE
  5
9721
330
9439
100
AcDbEntity
  8
0
100
AcDbLine
 10
194.0000058752795
 20
321.0159734615138
 30
0.0
 11
205.9999998752795
 21
321.0159734615138
 31
0.0
  0
LINE
  5
9722
330
9439
100
AcDbEntity
  8
0
100
AcDbLine
 10
206.9999998752795
 20
320.0159734615138
 30
0.0
 11
205.9999998752795
 21
321.0159734615138
 31
0.0
  0
LINE
  5
9723
330
9439
100
AcDbEntity
  8
0
100
AcDbLine
 10
206.9999998752795
 20
320.0159734615138
 30
0.0
 11
206.9999998752795
 21
259.0159783615137
 31
0.0
  0
LINE
  5
9724
330
9439
100
AcDbEntity
  8
0
100
AcDbLine
 10
205.9999998752795
 20
258.0159783615136
 30
0.0
 11
206.9999998752795
 21
259.0159783615137
 31
0.0
  0
LINE
  5
9725
330
9439
100
AcDbEntity
  8
0
100
AcDbLine
 10
205.9999998752795
 20
258.0159783615136
 30
0.0
 11
194.0000058752795
 21
258.0159783615136
 31
0.0
  0
LINE
  5
9726
330
9439
100
AcDbEntity
  8
0
100
AcDbLine
 10
193.0000058752795
 20
243.0000009218586
 30
0.0
 11
181.0000058752795
 21
243.0000009218586
 31
0.0
  0
LINE
  5
9727
330
9439
100
AcDbEntity
  8
0
100
AcDbLine
 10
179.8011974787614
 20
258.0159722615137
 30
0.0
 11
124.9999995752794
 21
258.0159722615137
 31
0.0
  0
LINE
  5
972A
330
9439
100
AcDbEntity
  8
2
100
AcDbLine
 10
123.9999995752795
 20
309.2928489115136
 30
0.0
 11
206.9999998752795
 21
309.2928489115136
 31
0.0
  0
LINE
  5
972B
330
9439
100
AcDbEntity
  8
2
100
AcDbLine
 10
123.9999995752794
 20
269.6928489115137
 30
0.0
 11
206.9999998752795
 21
269.6928489115137
 31
0.0
  0
LINE
  5
972C
330
9439
100
AcDbEntity
  8
0
100
AcDbLine
 10
180.0000058752795
 20
258.8854618921754
 30
0.0
 11
194.0000058752795
 21
258.8854618921754
 31
0.0
  0
LINE
  5
972D
330
9439
100
AcDbEntity
  8
0
100
AcDbLine
 10
180.0000058752795
 20
320.114539951542
 30
0.0
 11
194.0000058752795
 21
320.114539951542
 31
0.0
  0
LINE
  5
972E
330
9439
100
AcDbEntity
  8
9
100
AcDbLine
 10
180.0000058752795
 20
258.8854618921754
 30
0.0
 11
194.0000058752795
 21
320.114539951542
 31
0.0
  0
LINE
  5
972F
330
9439
100
AcDbEntity
  8
9
100
AcDbLine
 10
180.0000058752795
 20
320.114539951542
 30
0.0
 11
194.0000058752795
 21
258.8854618921754
 31
0.0
  0
LWPOLYLINE
  5
9743
330
9439
100
AcDbEntity
  8
0
100
AcDbPolyline
 90
       35
 70
   128
 43
0.0
 10
187.0000058752794
 20
327.2041317837043
 10
187.6247542358558
 20
327.2330775142417
 10
188.2282275403157
 20
327.3189289937169
 10
188.7898752290624
 20
327.4587626529639
 10
189.2905710636777
 20
327.6478166244292
 10
189.7132644480323
 20
327.8796529018595
 10
190.0435610658867
 20
328.1463765788842
 10
190.270213062067
 20
328.4389047005817
 10
190.3855020746825
 20
328.7472755726167
 10
190.3855020746825
 20
329.0609879947919
 10
190.270213062067
 20
329.3693588668268
 10
190.0435610658867
 20
329.6618869885244
 10
189.7132644480323
 20
329.928610665549
 10
189.2905710636777
 20
330.1604469429794
 10
188.7898752290624
 20
330.3495009144446
 10
188.2282275403157
 20
330.4893345736917
 10
187.6247542358558
 20
330.5751860531669
 10
187.0000058752794
 20
330.6041317837043
 10
186.3752575147031
 20
330.5751860531669
 10
185.7717842102431
 20
330.4893345736917
 10
185.2101365214964
 20
330.3495009144446
 10
184.709440686881
 20
330.1604469429794
 10
184.2867473025267
 20
329.928610665549
 10
183.9564506846723
 20
329.6618869885244
 10
183.7297986884919
 20
329.3693588668268
 10
183.6145096758763
 20
329.0609879947919
 10
183.6145096758763
 20
328.7472755726166
 10
183.7297986884919
 20
328.4389047005817
 10
183.9564506846723
 20
328.1463765788842
 10
184.2867473025267
 20
327.8796529018595
 10
184.7094406868811
 20
327.6478166244292
 10
185.2101365214965
 20
327.4587626529639
 10
185.7717842102432
 20
327.3189289937169
 10
186.3752575147032
 20
327.2330775142417
 10
187.0000058752794
 20
327.2041317837043
  0
LWPOLYLINE
  5
9744
330
9439
100
AcDbEntity
  8
9
100
AcDbPolyline
 90
        9
 70
   128
 43
0.0
 10
191.0000058752795
 20
328.9041317837043
 10
190.6955240053246
 20
328.1387649189741
 10
189.8284330000257
 20
327.4899182213311
 10
188.5307396047399
 20
327.0563727186817
 10
187.0000058752795
 20
326.9041317837042
 10
185.4692721458191
 20
327.0563727186817
 10
184.1715787505333
 20
327.4899182213312
 10
183.3044877452343
 20
328.1387649189741
 10
183.0000058752795
 20
328.9041317837043
  0
LWPOLYLINE
  5
9745
330
9439
100
AcDbEntity
  8
9
100
AcDbPolyline
 90
        5
 70
   128
 43
0.0
 10
187.0000058752795
 20
330.9041317837043
 10
188.5307396047399
 20
330.7518908487269
 10
189.8284330000257
 20
330.3183453460774
 10
190.6955240053246
 20
329.6694986484344
 10
191.0000058752795
 20
328.9041317837043
  0
ENDBLK
  5
943B
330
9439
100
AcDbEntity
  8
0
100
AcDbBlockEnd
  0
ENDSEC
  0
SECTION
  2
ENTITIES
  0
DIMENSION
  5
8F1C
330
19
100
AcDbEntity
  8
0
100
AcDbDimension
  2
*D2
 10
11.99999972527922
 20
107.0928489115135
 30
0.0
 11
9.499999725279206
 21
89.49284891151359
 31
0.0
 70
    32
  1
%%C<>
 71
     5
 42
35.19999999999993
  3
STANDARD
100
AcDbAlignedDimension
 13
21.99999972527948
 23
71.89284891151363
 33
0.0
 14
21.99999972527945
 24
107.0928489115135
 34
0.0
 50
90.0
100
AcDbRotatedDimension
1001
ACAD
1000
DSTYLE
1002
{
1070
    41
1040
3.0
1070
    42
1040
1.0
1070
    43
1040
1.0
1070
    44
1040
1.0
1070
    73
1070
     0
1070
    74
1070
     0
1070
    77
1070
     3
1070
    78
1070
     8
1070
   141
1040
-1.0
1070
   147
1040
1.0
1070
   172
1070
     1
1070
   176
1070
   115
1070
   177
1070
   115
1070
   178
1070
     7
1070
   271
1070
     2
1070
   272
1070
     2
1002
}
  0
DIMENSION
  5
8F1D
330
19
100
AcDbEntity
  8
0
100
AcDbDimension
  2
*D3
 10
3.999999725279224
 20
109.2928489115136
 30
0.0
 11
1.499999725279205
 21
89.49284891151359
 31
0.0
 70
    32
  1
%%C<>
 71
     5
 42
39.60000000000002
  3
STANDARD
100
AcDbAlignedDimension
 13
21.99999972527945
 23
69.69284891151358
 33
0.0
 14
21.99999972527948
 24
109.2928489115136
 34
0.0
 50
90.0
100
AcDbRotatedDimension
1001
ACAD
1000
DSTYLE
1002
{
1070
    41
1040
3.0
1070
    42
1040
1.0
1070
    43
1040
1.0
1070
    44
1040
1.0
1070
    73
1070
     0
1070
    74
1070
     0
1070
    77
1070
     3
1070
    78
1070
     8
1070
   141
1040
-1.0
1070
   147
1040
1.0
1070
   172
1070
     1
1070
   176
1070
   115
1070
   177
1070
   115
1070
   178
1070
     7
1070
   271
1070
     2
1070
   272
1070
     2
1002
}
  0
DIMENSION
  5
8F1E
330
19
100
AcDbEntity
  8
0
100
AcDbDimension
  2
*D4
 10
113.9999995752794
 20
121.0159644615137
 30
0.0
 11
110.714285289565
 21
89.51596836151372
 31
0.0
 70
    32
  1
%%C<> g6 ({\H0.5x;\S-0.010^ -0.029;})
 71
     5
 42
62.99999220000012
  3
STANDARD
100
AcDbAlignedDimension
 13
124.9999995752794
 23
58.01597226151364
 33
0.0
 14
124.9999995752795
 24
121.0159644615137
 34
0.0
 50
90.0
100
AcDbRotatedDimension
1001
ACAD
1000
DSTYLE
1002
{
1070
   998
1000
1,0,-0.01,-0.029,0,0,2,P7,g6,256
1070
    48
1040
0.029
1070
    47
1040
-0.01
1070
    71
1070
     0
1070
    72
1070
     0
1070
   284
1070
     8
1070
   283
1070
     1
1070
   146
1040
1.0
1070
     3
1000

1070
    41
1040
3.0
1070
    42
1040
1.0
1070
    43
1040
1.0
1070
    44
1040
1.0
1070
    73
1070
     0
1070
    74
1070
     0
1070
    77
1070
     3
1070
    78
1070
     8
1070
   141
1040
-1.0
1070
   147
1040
1.0
1070
   172
1070
     1
1070
   176
1070
   115
1070
   177
1070
   115
1070
   178
1070
     7
1070
   271
1070
     2
1070
   272
1070
     3
1002
}
  0
DIMENSION
  5
8F1F
330
19
100
AcDbEntity
  8
0
100
AcDbDimension
  2
*D5
 10
123.9999995752794
 20
33.00000092185849
 30
0.0
 11
152.0000027252794
 21
35.50000092185849
 31
0.0
 70
    32
 71
     5
 42
56.0000063000001
  3
STANDARD
100
AcDbAlignedDimension
 13
180.0000058752795
 23
44.00000092185854
 33
0.0
 14
123.9999995752794
 24
59.0159722615137
 34
0.0
100
AcDbRotatedDimension
1001
ACAD
1000
DSTYLE
1002
{
1070
    41
1040
3.0
1070
    42
1040
1.0
1070
    43
1040
1.0
1070
    44
1040
1.0
1070
    47
1040
1.0
1070
    48
1040
1.0
1070
    73
1070
     0
1070
    74
1070
     0
1070
    77
1070
     3
1070
    78
1070
     8
1070
   141
1040
-1.0
1070
   147
1040
1.0
1070
   172
1070
     1
1070
   176
1070
   115
1070
   177
1070
   115
1070
   178
1070
     7
1070
   271
1070
     2
1070
   272
1070
     3
1070
   284
1070
     8
1002
}
  0
DIMENSION
  5
8F20
330
19
100
AcDbEntity
  8
0
100
AcDbDimension
  2
*D6
 10
194.0000058752795
 20
33.00000092185849
 30
0.0
 11
187.0000058752795
 21
35.50000092185849
 31
0.0
 70
    32
 71
     5
 42
13.99999999999997
  3
STANDARD
100
AcDbAlignedDimension
 13
180.0000058752795
 23
44.00000092185854
 33
0.0
 14
194.0000058752795
 24
44.0000009218586
 34
0.0
100
AcDbRotatedDimension
1001
ACAD
1000
DSTYLE
1002
{
1070
    41
1040
3.0
1070
    42
1040
1.0
1070
    43
1040
1.0
1070
    44
1040
1.0
1070
    73
1070
     0
1070
    74
1070
     0
1070
    77
1070
     3
1070
    78
1070
     8
1070
   141
1040
-1.0
1070
   147
1040
1.0
1070
   172
1070
     1
1070
   176
1070
   115
1070
   177
1070
   115
1070
   178
1070
     7
1070
   271
1070
     2
1070
   272
1070
     2
1002
}
  0
DIMENSION
  5
8F21
330
19
100
AcDbEntity
  8
0
100
AcDbDimension
  2
*D7
 10
206.9999998752795
 20
25.00000092185871
 30
0.0
 11
165.4999997252794
 21
27.50000092185871
 31
0.0
 70
    32
 71
     5
 42
83.00000030000006
  3
STANDARD
100
AcDbAlignedDimension
 13
123.9999995752794
 23
59.0159722615137
 33
0.0
 14
206.9999998752795
 24
59.01597836151364
 34
0.0
100
AcDbRotatedDimension
1001
ACAD
1000
DSTYLE
1002
{
1070
    41
1040
3.0
1070
    42
1040
1.0
1070
    43
1040
1.0
1070
    44
1040
1.0
1070
    47
1040
1.0
1070
    48
1040
1.0
1070
    73
1070
     0
1070
    74
1070
     0
1070
    77
1070
     3
1070
    78
1070
     8
1070
   141
1040
-1.0
1070
   147
1040
1.0
1070
   172
1070
     1
1070
   176
1070
   115
1070
   177
1070
   115
1070
   178
1070
     7
1070
   271
1070
     2
1070
   272
1070
     3
1070
   284
1070
     8
1002
}
  0
DIMENSION
  5
8F22
330
19
100
AcDbEntity
  8
0
100
AcDbDimension
  2
*D8
 10
427.9999997252794
 20
1.000000921858827
 30
0.0
 11
392.9999997252794
 21
3.500000921858827
 31
0.0
 70
    32
 71
     5
 42
70.0
  3
STANDARD
100
AcDbAlignedDimension
 13
357.9999997252794
 23
58.87830988183032
 33
0.0
 14
427.9999997252794
 24
58.87830988183032
 34
0.0
100
AcDbRotatedDimension
1001
ACAD
1000
DSTYLE
1002
{
1070
    41
1040
3.0
1070
    42
1040
1.0
1070
    43
1040
1.0
1070
    44
1040
1.0
1070
    73
1070
     0
1070
    74
1070
     0
1070
    77
1070
     3
1070
    78
1070
     8
1070
   141
1040
-1.0
1070
   147
1040
1.0
1070
   172
1070
     1
1070
   176
1070
   115
1070
   177
1070
   115
1070
   178
1070
     7
1070
   271
1070
     2
1070
   272
1070
     2
1002
}
  0
DIMENSION
  5
8F23
330
19
100
AcDbEntity
  8
0
100
AcDbDimension
  2
*D9
 10
384.8471998045499
 20
59.06618538340786
 30
0.0
 11
392.9999997252794
 21
37.02657578170614
 31
0.0
 70
    34
 71
     5
 42
0.5235987755983143
  3
STANDARD
100
AcDb2LineAngularDimension
 13
405.0350853225469
 23
44.57729798907178
 33
0.0
 14
401.1527996460089
 24
59.06618538340786
 34
0.0
 15
380.964914128012
 25
44.57729798907178
 35
0.0
 16
388.2093733645803
 26
34.73573904573664
 36
0.0
1001
ACAD
1000
DSTYLE
1002
{
1070
    41
1040
3.0
1070
    42
1040
1.0
1070
    43
1040
1.0
1070
    44
1040
1.0
1070
    73
1070
     0
1070
    74
1070
     0
1070
    77
1070
     3
1070
    78
1070
     8
1070
    79
1070
     2
1070
   141
1040
-1.0
1070
   147
1040
1.0
1070
   172
1070
     1
1070
   176
1070
   115
1070
   177
1070
   115
1070
   178
1070
     7
1070
   271
1070
     2
1070
   272
1070
     2
1002
}
  0
DIMENSION
  5
8F24
330
19
100
AcDbEntity
  8
0
100
AcDbDimension
  2
*D10
 10
403.0939424842778
 20
17.00000092185883
 30
0.0
 11
392.9999997252794
 21
20.28571520757311
 31
0.0
 70
    32
  1
(<>)
 71
     5
 42
20.18788551799685
  3
STANDARD
100
AcDbAlignedDimension
 13
382.906056966281
 23
51.82174168623987
 33
0.0
 14
403.0939424842778
 24
51.82174168623987
 34
0.0
100
AcDbRotatedDimension
1001
ACAD
1000
DSTYLE
1002
{
1070
    41
1040
3.0
1070
    42
1040
1.0
1070
    43
1040
1.0
1070
    44
1040
1.0
1070
    73
1070
     0
1070
    74
1070
     0
1070
    77
1070
     3
1070
    78
1070
     8
1070
   141
1040
-1.0
1070
   147
1040
1.0
1070
   172
1070
     1
1070
   176
1070
   115
1070
   177
1070
   115
1070
   178
1070
     7
1070
   271
1070
     2
1070
   272
1070
     2
1002
}
  0
DIMENSION
  5
8F25
330
19
100
AcDbEntity
  8
0
100
AcDbDimension
  2
*D11
 10
445.9999997252786
 20
128.4928489115135
 30
0.0
 11
443.4999997252786
 21
89.49284891151359
 31
0.0
 70
    32
  1
PCD <>
 71
     5
 42
78.0
  3
STANDARD
100
AcDbAlignedDimension
 13
392.9999997252794
 23
50.49284891151353
 33
0.0
 14
392.9999997252794
 24
128.4928489115135
 34
0.0
 50
90.0
100
AcDbRotatedDimension
1001
ACAD
1000
DSTYLE
1002
{
1070
    41
1040
3.0
1070
    42
1040
1.0
1070
    43
1040
1.0
1070
    44
1040
1.0
1070
    73
1070
     0
1070
    74
1070
     0
1070
    77
1070
     3
1070
    78
1070
     8
1070
   141
1040
-1.0
1070
   147
1040
1.0
1070
   172
1070
     1
1070
   176
1070
   115
1070
   177
1070
   115
1070
   178
1070
     7
1070
   271
1070
     2
1070
   272
1070
     2
1002
}
  0
DIMENSION
  5
8F26
330
19
100
AcDbEntity
  8
0
100
AcDbDimension
  2
*D12
 10
437.9999997252786
 20
121.5700133777888
 30
0.0
 11
435.4999997252786
 21
131.0700133777889
 31
0.0
 70
    32
  1
6-%%C<>
 71
     5
 42
9.0
  3
STANDARD
100
AcDbAlignedDimension
 13
420.5771641915547
 23
112.5700133777889
 33
0.0
 14
420.5771641915547
 24
121.5700133777888
 34
0.0
 50
90.0
100
AcDbRotatedDimension
1001
ACAD
1000
DSTYLE
1002
{
1070
    41
1040
3.0
1070
    42
1040
1.0
1070
    43
1040
1.0
1070
    44
1040
1.0
1070
    73
1070
     0
1070
    74
1070
     0
1070
    77
1070
     3
1070
    78
1070
     8
1070
   141
1040
-1.0
1070
   147
1040
1.0
1070
   172
1070
     1
1070
   176
1070
   115
1070
   177
1070
   115
1070
   178
1070
     7
1070
   271
1070
     2
1070
   272
1070
     2
1002
}
  0
DIMENSION
  5
8F27
330
19
100
AcDbEntity
  8
0
100
AcDbDimension
  2
*D13
 10
216.9999998752796
 20
121.0159734615138
 30
0.0
 11
213.7142855895653
 21
89.51597591151374
 31
0.0
 70
    32
  1
%%C<> g6 ({\H0.5x;\S-0.010^ -0.029;})
 71
     5
 42
62.99999510000015
  3
STANDARD
100
AcDbAlignedDimension
 13
205.9999998752795
 23
58.01597836151365
 33
0.0
 14
205.9999998752795
 24
121.0159734615138
 34
0.0
 50
90.0
100
AcDbRotatedDimension
1001
ACAD
1000
DSTYLE
1002
{
1070
   998
1000
1,0,-0.01,-0.029,0,0,2,P7,g6,256
1070
    71
1070
     0
1070
    72
1070
     0
1070
   283
1070
     1
1070
   146
1040
1.0
1070
     3
1000

1070
    41
1040
3.0
1070
    42
1040
1.0
1070
    43
1040
1.0
1070
    44
1040
1.0
1070
    47
1040
-0.01
1070
    48
1040
0.029
1070
    73
1070
     0
1070
    74
1070
     0
1070
    77
1070
     3
1070
    78
1070
     8
1070
   141
1040
-1.0
1070
   147
1040
1.0
1070
   172
1070
     1
1070
   176
1070
   115
1070
   177
1070
   115
1070
   178
1070
     7
1070
   271
1070
     2
1070
   272
1070
     3
1070
   284
1070
     8
1002
}
  0
DIMENSION
  5
8F29
330
19
100
AcDbEntity
  8
0
100
AcDbDimension
  2
*D14
 10
206.9999998752795
 20
33.00000092185849
 30
0.0
 11
200.5000028752795
 21
35.50000092185849
 31
0.0
 70
    32
 71
     5
 42
12.99999399999999
  3
STANDARD
100
AcDbAlignedDimension
 13
194.0000058752795
 23
44.0000009218586
 33
0.0
 14
206.9999998752795
 24
59.01597836151364
 34
0.0
100
AcDbRotatedDimension
1001
ACAD
1000
DSTYLE
1002
{
1070
    41
1040
3.0
1070
    42
1040
1.0
1070
    43
1040
1.0
1070
    44
1040
1.0
1070
    73
1070
     0
1070
    74
1070
     0
1070
    77
1070
     3
1070
    78
1070
     8
1070
   141
1040
-1.0
1070
   147
1040
1.0
1070
   172
1070
     1
1070
   176
1070
   115
1070
   177
1070
   115
1070
   178
1070
     7
1070
   271
1070
     2
1070
   272
1070
     2
1002
}
  0
DIMENSION
  5
8F2A
330
19
100
AcDbEntity
  8
0
100
AcDbDimension
  2
*D15
 10
224.9999998752795
 20
136.0000009218586
 30
0.0
 11
222.4999998752795
 21
89.50000092185858
 31
0.0
 70
    32
  1
%%C<>
 71
     5
 42
93.00000000000013
  3
STANDARD
100
AcDbAlignedDimension
 13
193.0000058752795
 23
43.00000092185848
 33
0.0
 14
193.0000058752795
 24
136.0000009218586
 34
0.0
 50
90.0
100
AcDbRotatedDimension
1001
ACAD
1000
DSTYLE
1002
{
1070
   998
1000
1,1,-0.007,-0.02,0,0,2,H7,g6,256
1070
    47
1040
-0.007
1070
    71
1070
     0
1070
    72
1070
     0
1070
   283
1070
     1
1070
   146
1040
1.0
1070
     3
1000

1070
    41
1040
3.0
1070
    42
1040
1.0
1070
    43
1040
1.0
1070
    44
1040
1.0
1070
    48
1040
0.02
1070
    73
1070
     0
1070
    74
1070
     0
1070
    77
1070
     3
1070
    78
1070
     8
1070
   141
1040
-1.0
1070
   147
1040
1.0
1070
   172
1070
     1
1070
   176
1070
   115
1070
   177
1070
   115
1070
   178
1070
     7
1070
   271
1070
     2
1070
   272
1070
     3
1070
   284
1070
     8
1002
}
  0
DIMENSION
  5
8F2B
330
19
100
AcDbEntity
  8
0
100
AcDbDimension
  2
*D16
 10
403.2322229437985
 20
147.9577676138173
 30
0.0
 11
407.8972864564533
 21
144.8776406082859
 31
0.0
 70
    32
 71
     5
 42
9.999999989461343
  3
STANDARD
100
AcDbAlignedDimension
 13
378.659598688407
 23
122.2237509390372
 33
0.0
 14
378.4826508601557
 24
133.6685954465557
 34
0.0
 50
120.0000001084165
100
AcDbRotatedDimension
1001
ACAD
1000
DSTYLE
1002
{
1070
    41
1040
3.0
1070
    42
1040
1.0
1070
    43
1040
1.0
1070
    44
1040
1.0
1070
    73
1070
     0
1070
    74
1070
     0
1070
    77
1070
     3
1070
    78
1070
     8
1070
   141
1040
-1.0
1070
   147
1040
1.0
1070
   172
1070
     1
1070
   176
1070
   115
1070
   177
1070
   115
1070
   178
1070
     7
1070
   271
1070
     2
1070
   272
1070
     2
1002
}
  0
DIMENSION
  5
8F2C
330
19
100
AcDbEntity
  8
0
100
AcDbDimension
  2
*D17
 10
361.7313955003831
 20
135.5442589589446
 30
0.0
 11
350.2128086344741
 21
131.7807508418814
 31
0.0
 70
    32
  1
M<>x1
 71
     5
 42
7.999999800575608
  3
STANDARD
100
AcDbAlignedDimension
 13
373.6578597252795
 23
130.8870169115135
 33
0.0
 14
366.7296567252794
 24
126.8870169115135
 34
0.0
 50
210.0000009846574
100
AcDbRotatedDimension
1001
ACAD
1000
DSTYLE
1002
{
1070
    41
1040
3.0
1070
    42
1040
1.0
1070
    43
1040
1.0
1070
    44
1040
1.0
1070
    73
1070
     0
1070
    74
1070
     0
1070
    77
1070
     3
1070
    78
1070
     8
1070
   141
1040
-1.0
1070
   147
1040
1.0
1070
   172
1070
     1
1070
   176
1070
   115
1070
   177
1070
   115
1070
   178
1070
     7
1070
   271
1070
     2
1070
   272
1070
     2
1002
}
  0
LINE
  5
8F2D
330
19
100
AcDbEntity
  8
1
100
AcDbLine
 10
368.742003143754
 20
131.5089314805478
 30
0.0
 11
379.3420024166555
 21
113.1491941796889
 31
0.0
  0
DIMENSION
  5
8F2E
330
19
100
AcDbEntity
  8
0
100
AcDbDimension
  2
*D18
 10
379.3303570080666
 20
113.1424706999054
 30
0.0
 11
375.8231673526329
 21
153.5707661201908
 31
0.0
 70
    34
 71
     5
 42
0.5235987755982859
  3
STANDARD
100
AcDb2LineAngularDimension
 13
392.9999997252794
 23
39.99284891151353
 33
0.0
 14
392.9999997252794
 24
138.9928489115135
 34
0.0
 15
368.7303577351652
 25
131.5022080007643
 35
0.0
 16
381.9097532573484
 26
152.3618681610373
 36
0.0
1001
ACAD
1000
DSTYLE
1002
{
1070
    41
1040
3.0
1070
    42
1040
1.0
1070
    43
1040
1.0
1070
    44
1040
1.0
1070
    73
1070
     0
1070
    74
1070
     0
1070
    77
1070
     3
1070
    78
1070
     8
1070
    79
1070
     2
1070
   141
1040
-1.0
1070
   147
1040
1.0
1070
   172
1070
     1
1070
   176
1070
   115
1070
   177
1070
   115
1070
   178
1070
     7
1070
   179
1070
     1
1070
   271
1070
     2
1070
   272
1070
     2
1002
}
  0
DIMENSION
  5
8F2F
330
19
100
AcDbEntity
  8
0
100
AcDbDimension
  2
*D19
 10
347.9999997252793
 20
117.0700133777889
 30
0.0
 11
344.7142854395651
 21
89.49284891151361
 31
0.0
 70
    32
  1
(<>)
 71
     5
 42
55.1543289325507
  3
STANDARD
100
AcDbAlignedDimension
 13
365.4228352590041
 23
61.91568444523818
 33
0.0
 14
365.4228352590041
 24
117.0700133777889
 34
0.0
 50
90.0
100
AcDbRotatedDimension
1001
ACAD
1000
DSTYLE
1002
{
1070
    41
1040
3.0
1070
    42
1040
1.0
1070
    43
1040
1.0
1070
    44
1040
1.0
1070
    73
1070
     0
1070
    74
1070
     0
1070
    77
1070
     3
1070
    78
1070
     8
1070
   141
1040
-1.0
1070
   147
1040
1.0
1070
   172
1070
     1
1070
   176
1070
   115
1070
   177
1070
   115
1070
   178
1070
     7
1070
   271
1070
     2
1070
   272
1070
     2
1002
}
  0
LINE
  5
8F30
330
19
100
AcDbEntity
  8
1
100
AcDbLine
 10
18.99999972527948
 20
89.49284891151364
 30
0.0
 11
324.9999997252795
 21
89.49284891151364
 31
0.0
  0
LINE
  5
8F31
330
19
100
AcDbEntity
  8
1
100
AcDbLine
 10
180.0000058752795
 20
128.9041317837042
 30
0.0
 11
194.0000058752795
 21
128.9041317837042
 31
0.0
  0
LINE
  5
8F32
330
19
100
AcDbEntity
  8
1
100
AcDbLine
 10
187.0000058752795
 20
123.9041317837042
 30
0.0
 11
187.0000058752795
 21
133.9041317837042
 31
0.0
  0
INSERT
  5
8F33
330
19
100
AcDbEntity
  8
0
100
AcDbBlockReference
  2
A$C206831CA
 10
22.00000041589181
 20
69.69284905760173
 30
0.0
  0
INSERT
  5
8F35
330
19
100
AcDbEntity
  8
0
100
AcDbBlockReference
  2
A$C0E2778F5
 10
357.9803589425219
 20
43.03827897683368
 30
0.0
  0
DIMENSION
  5
8F36
330
19
100
AcDbEntity
  8
0
100
AcDbDimension
  2
*D20
 10
370.7261361179032
 20
67.21898530413728
 30
0.0
 11
392.9999997252794
 21
29.00716303226947
 31
0.0
 70
    34
 71
     5
 42
1.570796326794901
  3
STANDARD
100
AcDb2LineAngularDimension
 13
425.8804650504539
 23
56.61238358633909
 33
0.0
 14
415.2738633326556
 24
67.21898530413728
 34
0.0
 15
360.119534400105
 25
56.61238358633909
 35
0.0
 16
376.6981046508862
 26
28.65334823422101
 36
0.0
1001
ACAD
1000
DSTYLE
1002
{
1070
    41
1040
3.0
1070
    42
1040
1.0
1070
    43
1040
1.0
1070
    44
1040
1.0
1070
    73
1070
     0
1070
    74
1070
     0
1070
    77
1070
     3
1070
    78
1070
     8
1070
    79
1070
     2
1070
   141
1040
-1.0
1070
   147
1040
1.0
1070
   172
1070
     1
1070
   176
1070
   115
1070
   177
1070
   115
1070
   178
1070
     7
1070
   271
1070
     2
1070
   272
1070
     2
1002
}
  0
DIMENSION
  5
8F37
330
19
100
AcDbEntity
  8
0
100
AcDbDimension
  2
*D21
 10
420.5575082252795
 20
9.000000921858827
 30
0.0
 11
392.9901717421418
 21
12.28571520757311
 31
0.0
 70
    32
  1
(<>)
 71
     5
 42
55.13467296627538
  3
STANDARD
100
AcDbAlignedDimension
 13
365.4228352590041
 23
61.91568444523818
 33
0.0
 14
420.5575082252795
 24
61.92281141151363
 34
0.0
100
AcDbRotatedDimension
1001
ACAD
1000
DSTYLE
1002
{
1070
    41
1040
3.0
1070
    42
1040
1.0
1070
    43
1040
1.0
1070
    44
1040
1.0
1070
    73
1070
     0
1070
    74
1070
     0
1070
    77
1070
     3
1070
    78
1070
     8
1070
   141
1040
-1.0
1070
   147
1040
1.0
1070
   172
1070
     1
1070
   176
1070
   115
1070
   177
1070
   115
1070
   178
1070
     7
1070
   271
1070
     2
1070
   272
1070
     2
1002
}
  0
CIRCLE
  5
8F38
330
19
100
AcDbEntity
  8
1
100
AcDbCircle
 10
392.9999997252794
 20
89.49284891151354
 30
0.0
 40
39.00000000000002
  0
LINE
  5
8F39
330
19
100
AcDbEntity
  8
1
100
AcDbLine
 10
354.9999997252795
 20
89.49284891151364
 30
0.0
 11
430.9999997252795
 21
89.49284891151354
 31
0.0
  0
LINE
  5
8F3A
330
19
100
AcDbEntity
  8
1
100
AcDbLine
 10
392.9999997252794
 20
39.99284891151353
 30
0.0
 11
392.9999997252794
 21
138.9928489115135
 31
0.0
  0
LINE
  5
8F3B
330
19
100
AcDbEntity
  8
1
100
AcDbLine
 10
360.119534400105
 20
56.61238358633909
 30
0.0
 11
370.7261361179032
 21
67.21898530413728
 31
0.0
  0
LINE
  5
8F3C
330
19
100
AcDbEntity
  8
1
100
AcDbLine
 10
380.964914128012
 20
44.57729798907178
 30
0.0
 11
384.8471998045499
 21
59.06618538340786
 31
0.0
  0
LINE
  5
8F3D
330
19
100
AcDbEntity
  8
1
100
AcDbLine
 10
425.8804650504539
 20
56.61238358633909
 30
0.0
 11
415.2738633326556
 21
67.21898530413728
 31
0.0
  0
LINE
  5
8F3E
330
19
100
AcDbEntity
  8
1
100
AcDbLine
 10
405.0350853225469
 20
44.57729798907178
 30
0.0
 11
401.1527996460089
 21
59.06618538340786
 31
0.0
  0
LINE
  5
8F3F
330
19
100
AcDbEntity
  8
1
100
AcDbLine
 10
360.119534400105
 20
122.373314236688
 30
0.0
 11
370.7261361179032
 21
111.7667125188898
 31
0.0
  0
LINE
  5
8F40
330
19
100
AcDbEntity
  8
1
100
AcDbLine
 10
380.964914128012
 20
134.4083998339553
 30
0.0
 11
384.8471998045499
 21
119.9195124396192
 31
0.0
  0
LINE
  5
8F41
330
19
100
AcDbEntity
  8
1
100
AcDbLine
 10
425.8804650504539
 20
122.373314236688
 30
0.0
 11
415.2738633326556
 21
111.7667125188898
 31
0.0
  0
LINE
  5
8F42
330
19
100
AcDbEntity
  8
1
100
AcDbLine
 10
405.0350853225469
 20
134.4083998339553
 30
0.0
 11
401.1527996460089
 21
119.9195124396192
 31
0.0
  0
DIMENSION
  5
8F43
330
19
100
AcDbEntity
  8
0
100
AcDbDimension
  2
*D22
 10
339.9999997252793
 20
127.1639561367872
 30
0.0
 11
336.714285439565
 21
89.49284891151355
 31
0.0
 70
    32
  1
(<>)
 71
     5
 42
75.34221445054743
  3
STANDARD
100
AcDbAlignedDimension
 13
382.9060569662809
 23
51.82174168623976
 33
0.0
 14
382.9060569662811
 24
127.1639561367872
 34
0.0
 50
90.0
100
AcDbRotatedDimension
1001
ACAD
1000
DSTYLE
1002
{
1070
    41
1040
3.0
1070
    42
1040
1.0
1070
    43
1040
1.0
1070
    44
1040
1.0
1070
    73
1070
     0
1070
    74
1070
     0
1070
    77
1070
     3
1070
    78
1070
     8
1070
   141
1040
-1.0
1070
   147
1040
1.0
1070
   172
1070
     1
1070
   176
1070
   115
1070
   177
1070
   115
1070
   178
1070
     7
1070
   271
1070
     2
1070
   272
1070
     2
1002
}
  0
INSERT
  5
945D
330
19
100
AcDbEntity
  8
0
100
AcDbBlockReference
  2
4020SDH
 10
0.0
 20
-200.0
 30
0.0
  0
ENDSEC
  0
SECTION
  2
OBJECTS
  0
DICTIONARY
  5
C
330
0
100
AcDbDictionary
281
     1
  3
ACAD_CIP_PREVIOUS_PRODUCT_INFO
350
7E1B
  3
ACAD_COLOR
350
7DF9
  3
ACAD_GROUP
350
D
  3
ACAD_LAYOUT
350
7E10
  3
ACAD_MATERIAL
350
7DC7
  3
ACAD_MLEADERSTYLE
350
7E0E
  3
ACAD_MLINESTYLE
350
E
  3
ACAD_PLOTSETTINGS
350
7E11
  3
ACAD_PLOTSTYLENAME
350
7DC5
  3
ACAD_SCALELIST
350
7DFC
  3
ACAD_TABLESTYLE
350
7DFA
  3
ACAD_VISUALSTYLE
350
7DE0
  3
ACDB_RECOMPOSE_DATA
350
9866
  3
ACDBVARIABLEDICTIONARY
350
1BF
  3
DWGPROPS
350
9867
  0
DICTIONARY
  5
9225
330
8
100
AcDbDictionary
280
     1
281
     1
  0
DICTIONARY
  5
92E4
330
2
100
AcDbDictionary
280
     1
281
     1
  3
ACAD_LAYERSTATES
360
92E5
  0
DICTIONARY
  5
919E
330
F
100
AcDbDictionary
280
     1
281
     1
  3
ADSK_XREC_LAYER_RECONCILED
360
919F
  0
DICTIONARY
  5
91A0
330
8EEA
100
AcDbDictionary
280
     1
281
     1
  3
ADSK_XREC_LAYER_RECONCILED
360
91A1
  0
DICTIONARY
  5
91A2
330
8EEB
100
AcDbDictionary
280
     1
281
     1
  3
ADSK_XREC_LAYER_RECONCILED
360
91A3
  0
DICTIONARY
  5
91A4
330
8EEC
100
AcDbDictionary
280
     1
281
     1
  3
ADSK_XREC_LAYER_RECONCILED
360
91A5
  0
DICTIONARY
  5
8204
330
19
100
AcDbDictionary
280
     1
281
     1
  3
ACAD_SORTENTS
360
8205
  0
DICTIONARY
  5
8E6F
330
8E6E
100
AcDbDictionary
280
     1
281
     1
  3
ACAD_SORTENTS
360
914C
  0
DICTIONARY
  5
96FC
330
8EA3
100
AcDbDictionary
280
     1
281
     1
  3
ACAD_SORTENTS
360
96FD
  0
DICTIONARY
  5
9730
330
9439
100
AcDbDictionary
280
     1
281
     1
  0
DICTIONARY
  5
98A0
330
909A
100
AcDbDictionary
280
     1
281
     1
  3
ACAD_MTEXT_RT
360
98A1
  0
DICTIONARY
  5
98A2
330
90FA
100
AcDbDictionary
280
     1
281
     1
  3
ACAD_MTEXT_RT
360
98A3
  0
DICTIONARY
  5
98A4
330
910E
100
AcDbDictionary
280
     1
281
     1
  3
ACAD_MTEXT_RT
360
98A5
  0
XRECORD
  5
7E1B
102
{ACAD_REACTORS
330
C
102
}
330
C
100
AcDbXrecord
280
     1
300
ACDLT
300
2012
300
ACDLT_F_S
  0
DICTIONARY
  5
7DF9
102
{ACAD_REACTORS
330
C
102
}
330
C
100
AcDbDictionary
281
     1
  0
DICTIONARY
  5
D
102
{ACAD_REACTORS
330
C
102
}
330
C
100
AcDbDictionary
281
     1
  0
DICTIONARY
  5
7E10
102
{ACAD_REACTORS
330
C
102
}
330
C
100
AcDbDictionary
281
     1
  3
Model
350
7E12
  3
배치1
350
7E13
  0
DICTIONARY
  5
7DC7
102
{ACAD_REACTORS
330
C
102
}
330
C
100
AcDbDictionary
281
     1
  3
ByBlock
350
7DD0
  3
ByLayer
350
7DC8
  3
Global
350
7DD8
  0
DICTIONARY
  5
7E0E
102
{ACAD_REACTORS
330
C
102
}
330
C
100
AcDbDictionary
281
     1
  3
Standard
350
7E0F
  0
DICTIONARY
  5
E
102
{ACAD_REACTORS
330
C
102
}
330
C
100
AcDbDictionary
281
     1
  3
STANDARD
350
1C
  0
DICTIONARY
  5
7E11
102
{ACAD_REACTORS
330
C
102
}
330
C
100
AcDbDictionary
281
     1
  0
ACDBDICTIONARYWDFLT
  5
7DC5
102
{ACAD_REACTORS
330
C
102
}
330
C
100
AcDbDictionary
281
     1
  3
Normal
350
7DC6
100
AcDbDictionaryWithDefault
340
7DC6
  0
DICTIONARY
  5
7DFC
102
{ACAD_REACTORS
330
C
102
}
330
C
100
AcDbDictionary
281
     1
  3
A0
350
7DFD
  3
A1
350
7DFE
  3
A2
350
7DFF
  3
A3
350
7E00
  3
A4
350
7E01
  3
A5
350
7E02
  3
A6
350
7E03
  3
A7
350
7E04
  3
A8
350
7E05
  3
A9
350
7E06
  3
B0
350
7E07
  3
B1
350
7E08
  3
B2
350
7E09
  3
B3
350
7E0A
  3
B4
350
7E0B
  3
B5
350
7E0C
  3
B6
350
7E0D
  0
DICTIONARY
  5
7DFA
102
{ACAD_REACTORS
330
C
102
}
330
C
100
AcDbDictionary
281
     1
  3
Standard
350
7DFB
  0
DICTIONARY
  5
7DE0
102
{ACAD_REACTORS
330
C
102
}
330
C
100
AcDbDictionary
281
     1
  3
2dWireframe
350
7DE6
  3
Basic
350
7DE5
  3
Brighten
350
7DEC
  3
ColorChange
350
7DF0
  3
Conceptual
350
7DE9
  3
Dim
350
7DEB
  3
EdgeColorOff
350
7DF8
  3
Facepattern
350
7DEF
  3
Flat
350
7DE1
  3
FlatWithEdges
350
7DE2
  3
Gouraud
350
7DE3
  3
GouraudWithEdges
350
7DE4
  3
Hidden
350
7DE8
  3
JitterOff
350
7DF6
  3
Linepattern
350
7DEE
  3
OverhangOff
350
7DF7
  3
Realistic
350
7DEA
  3
Shaded
350
7DF5
  3
Shaded with edges
350
7DF4
  3
Shades of Gray
350
7DF1
  3
Sketchy
350
7DF2
  3
Thicken
350
7DED
  3
Wireframe
350
7DE7
  3
X-Ray
350
7DF3
  0
XRECORD
  5
9866
102
{ACAD_REACTORS
330
C
102
}
330
C
100
AcDbXrecord
280
     1
 90
        1
330
7DFB
  0
DICTIONARY
  5
1BF
102
{ACAD_REACTORS
330
C
102
}
330
C
100
AcDbDictionary
281
     1
  3
CANNOSCALE
350
9292
  3
CMLEADERSTYLE
350
9291
  3
CTABLESTYLE
350
9290
  3
DIMASSOC
350
9294
  3
INDEXCTL
350
9293
  3
SORTENTS
350
1C0
  3
XCLIPFRAME
350
9862
  0
XRECORD
  5
9867
102
{ACAD_REACTORS
330
C
102
}
330
C
100
AcDbXrecord
280
     1
  1
DWGPROPS COOKIE
  2

  3

  4

  6

  7

  8
woni
  9

300
=
301
=
302
=
303
=
304
=
305
=
306
=
307
=
308
=
309
=
 40
0.4358495949074074
 41
2452464.575009942
 42
2456846.821597315
  1

 90
        0
  0
DICTIONARY
  5
92E5
102
{ACAD_REACTORS
330
92E4
102
}
330
92E4
100
AcDbDictionary
281
     1
  0
XRECORD
  5
919F
102
{ACAD_REACTORS
330
919E
102
}
330
919E
100
AcDbXrecord
280
     1
290
     1
  0
XRECORD
  5
91A1
102
{ACAD_REACTORS
330
91A0
102
}
330
91A0
100
AcDbXrecord
280
     1
290
     1
  0
XRECORD
  5
91A3
102
{ACAD_REACTORS
330
91A2
102
}
330
91A2
100
AcDbXrecord
280
     1
290
     1
  0
XRECORD
  5
91A5
102
{ACAD_REACTORS
330
91A4
102
}
330
91A4
100
AcDbXrecord
280
     1
290
     1
  0
SORTENTSTABLE
  5
8205
102
{ACAD_REACTORS
330
8204
102
}
330
8204
100
AcDbSortentsTable
330
19
331
8F33
  5
93E0
331
8F20
  5
8F20
331
8F43
  5
945D
331
8F1E
  5
8F1E
331
8F31
  5
8F31
331
8F41
  5
93ED
331
8F1C
  5
8F1C
331
8F2F
  5
8F2F
331
8F3F
  5
93EB
331
8F2D
  5
8F2D
331
8F3D
  5
93E9
331
8F2B
  5
8F2B
331
8F3B
  5
93E7
331
8F29
  5
8F29
331
8F39
  5
93E5
331
8F27
  5
8F27
331
8F25
  5
8F25
331
8F36
  5
93E2
331
8F23
  5
8F23
331
8F21
  5
8F21
331
8F32
  5
8F33
331
8F1F
  5
8F1F
331
8F42
  5
93EE
331
8F1D
  5
8F1D
331
8F30
  5
8F30
331
8F40
  5
93EC
331
8F2E
  5
8F2E
331
8F3E
  5
93EA
331
8F2C
  5
8F2C
331
8F3C
  5
93E8
331
8F2A
  5
8F2A
331
8F3A
  5
93E6
331
8F38
  5
93E4
331
8F26
  5
8F26
331
8F37
  5
93E3
331
8F24
  5
8F24
331
945D
  5
9790
331
8F35
  5
93E1
331
8F22
  5
8F22
  0
SORTENTSTABLE
  5
914C
102
{ACAD_REACTORS
330
8E6F
102
}
330
8E6F
100
AcDbSortentsTable
330
8E6E
  0
SORTENTSTABLE
  5
96FD
102
{ACAD_REACTORS
330
96FC
102
}
330
96FC
100
AcDbSortentsTable
330
8EA3
331
96F0
  5
96E4
331
96EE
  5
96E3
331
96EC
  5
96E7
331
96EA
  5
96F0
331
96FB
  5
96FA
331
96E8
  5
96EE
331
96E6
  5
96EC
331
96E4
  5
96EA
331
96F1
  5
96E6
331
96EF
  5
96E5
331
96ED
  5
96E8
331
96EB
  5
96F1
331
96E9
  5
96EF
331
96FA
  5
96FB
331
96E7
  5
96ED
331
96E5
  5
96EB
331
96E3
  5
96E9
  0
XRECORD
  5
98A1
102
{ACAD_REACTORS
330
98A0
102
}
330
98A0
100
AcDbXrecord
280
     1
 40
5283.0
  1
\A1;30\U+00B0
  0
XRECORD
  5
98A3
102
{ACAD_REACTORS
330
98A2
102
}
330
98A2
100
AcDbXrecord
280
     1
 40
5283.0
  1
\A1;30\U+00B0
  0
XRECORD
  5
98A5
102
{ACAD_REACTORS
330
98A4
102
}
330
98A4
100
AcDbXrecord
280
     1
 40
5313.0
  1
\A1;90\U+00B0
  0
LAYOUT
  5
7E12
102
{ACAD_XDICTIONARY
360
989C
102
}
102
{ACAD_REACTORS
330
7E10
102
}
330
7E10
100
AcDbPlotSettings
  1

  2
SINDOH M402_408 Series
  4

  6

 40
0.0
 41
0.0
 42
0.0
 43
0.0
 44
0.0
 45
0.0
 46
0.0
 47
0.0
 48
0.0
 49
0.0
140
0.0
141
0.0
142
1.0
143
1.0
 70
  1712
 72
     0
 73
     0
 74
     0
  7

 75
     0
147
1.0
148
0.0
149
0.0
100
AcDbLayout
  1
Model
 70
     1
 71
     0
 10
0.0
 20
0.0
 11
12.0
 21
9.0
 12
0.0
 22
0.0
 32
0.0
 14
0.0
 24
0.0
 34
0.0
 15
0.0
 25
0.0
 35
0.0
146
0.0
 13
0.0
 23
0.0
 33
0.0
 16
1.0
 26
0.0
 36
0.0
 17
0.0
 27
1.0
 37
0.0
 76
     0
330
19
331
7DC3
  0
LAYOUT
  5
7E13
102
{ACAD_XDICTIONARY
360
989E
102
}
102
{ACAD_REACTORS
330
7E10
102
}
330
7E10
100
AcDbPlotSettings
  1

  2
SINDOH M402_408 Series
  4

  6

 40
0.0
 41
0.0
 42
0.0
 43
0.0
 44
0.0
 45
0.0
 46
0.0
 47
0.0
 48
0.0
 49
0.0
140
0.0
141
0.0
142
1.0
143
1.0
 70
   688
 72
     0
 73
     0
 74
     5
  7

 75
    16
147
1.0
148
0.0
149
0.0
100
AcDbLayout
  1
배치1
 70
     1
 71
     1
 10
0.0
 20
0.0
 11
12.0
 21
9.0
 12
0.0
 22
0.0
 32
0.0
 14
1.000000000000000E+20
 24
1.000000000000000E+20
 34
1.000000000000000E+20
 15
-1.000000000000000E+20
 25
-1.000000000000000E+20
 35
-1.000000000000000E+20
146
0.0
 13
0.0
 23
0.0
 33
0.0
 16
1.0
 26
0.0
 36
0.0
 17
0.0
 27
1.0
 37
0.0
 76
     0
330
16
  0
MATERIAL
  5
7DD0
102
{ACAD_XDICTIONARY
360
7DD1
102
}
102
{ACAD_REACTORS
330
7DC7
102
}
330
7DC7
100
AcDbMaterial
  1
ByBlock
 72
     0
 43
0.0208333333333333
 43
0.0
 43
0.0
 43
0.0
 43
0.0
 43
0.0208333333333333
 43
0.0
 43
0.0
 43
0.0
 43
0.0
 43
1.0
 43
0.0
 43
0.0
 43
0.0
 43
0.0
 43
1.0
 77
     0
 47
0.0208333333333333
 47
0.0
 47
0.0
 47
0.0
 47
0.0
 47
0.0208333333333333
 47
0.0
 47
0.0
 47
0.0
 47
0.0
 47
1.0
 47
0.0
 47
0.0
 47
0.0
 47
0.0
 47
1.0
171
     0
 49
0.0208333333333333
 49
0.0
 49
0.0
 49
0.0
 49
0.0
 49
0.0208333333333333
 49
0.0
 49
0.0
 49
0.0
 49
0.0
 49
1.0
 49
0.0
 49
0.0
 49
0.0
 49
0.0
 49
1.0
175
     0
142
0.0208333333333333
142
0.0
142
0.0
142
0.0
142
0.0
142
0.0208333333333333
142
0.0
142
0.0
142
0.0
142
0.0
142
1.0
142
0.0
142
0.0
142
0.0
142
0.0
142
1.0
179
     0
144
0.0208333333333333
144
0.0
144
0.0
144
0.0
144
0.0
144
0.0208333333333333
144
0.0
144
0.0
144
0.0
144
0.0
144
1.0
144
0.0
144
0.0
144
0.0
144
0.0
144
1.0
147
0.0208333333333333
147
0.0
147
0.0
147
0.0
147
0.0
147
0.0208333333333333
147
0.0
147
0.0
147
0.0
147
0.0
147
1.0
147
0.0
147
0.0
147
0.0
147
0.0
147
1.0
  0
MATERIAL
  5
7DC8
102
{ACAD_XDICTIONARY
360
7DC9
102
}
102
{ACAD_REACTORS
330
7DC7
102
}
330
7DC7
100
AcDbMaterial
  1
ByLayer
 72
     0
 43
0.0208333333333333
 43
0.0
 43
0.0
 43
0.0
 43
0.0
 43
0.0208333333333333
 43
0.0
 43
0.0
 43
0.0
 43
0.0
 43
1.0
 43
0.0
 43
0.0
 43
0.0
 43
0.0
 43
1.0
 77
     0
 47
0.0208333333333333
 47
0.0
 47
0.0
 47
0.0
 47
0.0
 47
0.0208333333333333
 47
0.0
 47
0.0
 47
0.0
 47
0.0
 47
1.0
 47
0.0
 47
0.0
 47
0.0
 47
0.0
 47
1.0
171
     0
 49
0.0208333333333333
 49
0.0
 49
0.0
 49
0.0
 49
0.0
 49
0.0208333333333333
 49
0.0
 49
0.0
 49
0.0
 49
0.0
 49
1.0
 49
0.0
 49
0.0
 49
0.0
 49
0.0
 49
1.0
175
     0
142
0.0208333333333333
142
0.0
142
0.0
142
0.0
142
0.0
142
0.0208333333333333
142
0.0
142
0.0
142
0.0
142
0.0
142
1.0
142
0.0
142
0.0
142
0.0
142
0.0
142
1.0
179
     0
144
0.0208333333333333
144
0.0
144
0.0
144
0.0
144
0.0
144
0.0208333333333333
144
0.0
144
0.0
144
0.0
144
0.0
144
1.0
144
0.0
144
0.0
144
0.0
144
0.0
144
1.0
147
0.0208333333333333
147
0.0
147
0.0
147
0.0
147
0.0
147
0.0208333333333333
147
0.0
147
0.0
147
0.0
147
0.0
147
1.0
147
0.0
147
0.0
147
0.0
147
0.0
147
1.0
  0
MATERIAL
  5
7DD8
102
{ACAD_XDICTIONARY
360
7DD9
102
}
102
{ACAD_REACTORS
330
7DC7
102
}
330
7DC7
100
AcDbMaterial
  1
Global
 72
     0
 43
0.0208333333333333
 43
0.0
 43
0.0
 43
0.0
 43
0.0
 43
0.0208333333333333
 43
0.0
 43
0.0
 43
0.0
 43
0.0
 43
1.0
 43
0.0
 43
0.0
 43
0.0
 43
0.0
 43
1.0
 77
     0
 47
0.0208333333333333
 47
0.0
 47
0.0
 47
0.0
 47
0.0
 47
0.0208333333333333
 47
0.0
 47
0.0
 47
0.0
 47
0.0
 47
1.0
 47
0.0
 47
0.0
 47
0.0
 47
0.0
 47
1.0
171
     0
 49
0.0208333333333333
 49
0.0
 49
0.0
 49
0.0
 49
0.0
 49
0.0208333333333333
 49
0.0
 49
0.0
 49
0.0
 49
0.0
 49
1.0
 49
0.0
 49
0.0
 49
0.0
 49
0.0
 49
1.0
175
     0
142
0.0208333333333333
142
0.0
142
0.0
142
0.0
142
0.0
142
0.0208333333333333
142
0.0
142
0.0
142
0.0
142
0.0
142
1.0
142
0.0
142
0.0
142
0.0
142
0.0
142
1.0
179
     0
144
0.0208333333333333
144
0.0
144
0.0
144
0.0
144
0.0
144
0.0208333333333333
144
0.0
144
0.0
144
0.0
144
0.0
144
1.0
144
0.0
144
0.0
144
0.0
144
0.0
144
1.0
147
0.0208333333333333
147
0.0
147
0.0
147
0.0
147
0.0
147
0.0208333333333333
147
0.0
147
0.0
147
0.0
147
0.0
147
1.0
147
0.0
147
0.0
147
0.0
147
0.0
147
1.0
  0
MLEADERSTYLE
  5
7E0F
102
{ACAD_XDICTIONARY
360
9864
102
}
102
{ACAD_REACTORS
330
7E0E
102
}
330
7E0E
100
AcDbMLeaderStyle
170
     2
171
     1
172
     0
 90
        2
 40
0.0
 41
0.0
173
     1
 91
-1056964608
340
13
 92
       -2
290
     1
 42
0.09
291
     1
 43
0.36
  3
Standard
 44
0.18
300

342
10
174
     1
178
     6
175
     1
176
     0
 93
-1056964608
 45
0.18
292
     0
297
     0
 46
0.18
 94
-1056964608
 47
1.0
 49
1.0
140
1.0
293
     1
141
0.0
294
     1
177
     0
142
1.0
295
     0
296
     0
143
0.125
1001
ACAD_MLEADERVER
1070
     2
  0
MLINESTYLE
  5
1C
102
{ACAD_REACTORS
330
E
102
}
330
E
100
AcDbMlineStyle
  2
STANDARD
 70
     0
  3

 62
     0
 51
90.0
 52
90.0
 71
     2
 49
0.5
 62
   256
  6
BYLAYER
 49
-0.5
 62
   256
  6
BYLAYER
  0
ACDBPLACEHOLDER
  5
7DC6
102
{ACAD_REACTORS
330
7DC5
102
}
330
7DC5
  0
SCALE
  5
7DFD
102
{ACAD_REACTORS
330
7DFC
102
}
330
7DFC
100
AcDbScale
 70
     0
300
1:1
140
1.0
141
1.0
290
     1
  0
SCALE
  5
7DFE
102
{ACAD_REACTORS
330
7DFC
102
}
330
7DFC
100
AcDbScale
 70
     0
300
1/128" = 1'-0"
140
0.0078125
141
12.0
290
     0
  0
SCALE
  5
7DFF
102
{ACAD_REACTORS
330
7DFC
102
}
330
7DFC
100
AcDbScale
 70
     0
300
1/64" = 1'-0"
140
0.015625
141
12.0
290
     0
  0
SCALE
  5
7E00
102
{ACAD_REACTORS
330
7DFC
102
}
330
7DFC
100
AcDbScale
 70
     0
300
1/32" = 1'-0"
140
0.03125
141
12.0
290
     0
  0
SCALE
  5
7E01
102
{ACAD_REACTORS
330
7DFC
102
}
330
7DFC
100
AcDbScale
 70
     0
300
1/16" = 1'-0"
140
0.0625
141
12.0
290
     0
  0
SCALE
  5
7E02
102
{ACAD_REACTORS
330
7DFC
102
}
330
7DFC
100
AcDbScale
 70
     0
300
3/32" = 1'-0"
140
0.09375
141
12.0
290
     0
  0
SCALE
  5
7E03
102
{ACAD_REACTORS
330
7DFC
102
}
330
7DFC
100
AcDbScale
 70
     0
300
1/8" = 1'-0"
140
0.125
141
12.0
290
     0
  0
SCALE
  5
7E04
102
{ACAD_REACTORS
330
7DFC
102
}
330
7DFC
100
AcDbScale
 70
     0
300
3/16" = 1'-0"
140
0.1875
141
12.0
290
     0
  0
SCALE
  5
7E05
102
{ACAD_REACTORS
330
7DFC
102
}
330
7DFC
100
AcDbScale
 70
     0
300
1/4" = 1'-0"
140
0.25
141
12.0
290
     0
  0
SCALE
  5
7E06
102
{ACAD_REACTORS
330
7DFC
102
}
330
7DFC
100
AcDbScale
 70
     0
300
3/8" = 1'-0"
140
0.375
141
12.0
290
     0
  0
SCALE
  5
7E07
102
{ACAD_REACTORS
330
7DFC
102
}
330
7DFC
100
AcDbScale
 70
     0
300
1/2" = 1'-0"
140
0.5
141
12.0
290
     0
  0
SCALE
  5
7E08
102
{ACAD_REACTORS
330
7DFC
102
}
330
7DFC
100
AcDbScale
 70
     0
300
3/4" = 1'-0"
140
0.75
141
12.0
290
     0
  0
SCALE
  5
7E09
102
{ACAD_REACTORS
330
7DFC
102
}
330
7DFC
100
AcDbScale
 70
     0
300
1" = 1'-0"
140
1.0
141
12.0
290
     0
  0
SCALE
  5
7E0A
102
{ACAD_REACTORS
330
7DFC
102
}
330
7DFC
100
AcDbScale
 70
     0
300
1-1/2" = 1'-0"
140
1.5
141
12.0
290
     0
  0
SCALE
  5
7E0B
102
{ACAD_REACTORS
330
7DFC
102
}
330
7DFC
100
AcDbScale
 70
     0
300
3" = 1'-0"
140
3.0
141
12.0
290
     0
  0
SCALE
  5
7E0C
102
{ACAD_REACTORS
330
7DFC
102
}
330
7DFC
100
AcDbScale
 70
     0
300
6" = 1'-0"
140
6.0
141
12.0
290
     0
  0
SCALE
  5
7E0D
102
{ACAD_REACTORS
330
7DFC
102
}
330
7DFC
100
AcDbScale
 70
     0
300
1'-0" = 1'-0"
140
12.0
141
12.0
290
     0
  0
TABLESTYLE
  5
7DFB
102
{ACAD_XDICTIONARY
360
921F
102
}
102
{ACAD_REACTORS
330
7DFA
102
}
330
7DFA
100
AcDbTableStyle
  3
Standard
 70
     0
 71
     0
 40
0.06
 41
0.06
280
     0
281
     0
  7
STANDARD
140
0.18
170
     2
 62
     0
 63
     7
283
     0
274
    -2
284
     1
 64
     0
275
    -2
285
     1
 65
     0
276
    -2
286
     1
 66
     0
277
    -2
287
     1
 67
     0
278
    -2
288
     1
 68
     0
279
    -2
289
     1
 69
     0
  7
STANDARD
140
0.25
170
     5
 62
     0
 63
     7
283
     0
274
    -2
284
     1
 64
     0
275
    -2
285
     1
 65
     0
276
    -2
286
     1
 66
     0
277
    -2
287
     1
 67
     0
278
    -2
288
     1
 68
     0
279
    -2
289
     1
 69
     0
  7
STANDARD
140
0.18
170
     5
 62
     0
 63
     7
283
     0
274
    -2
284
     1
 64
     0
275
    -2
285
     1
 65
     0
276
    -2
286
     1
 66
     0
277
    -2
287
     1
 67
     0
278
    -2
288
     1
 68
     0
279
    -2
289
     1
 69
     0
  0
VISUALSTYLE
  5
7DE6
102
{ACAD_XDICTIONARY
360
9875
102
}
102
{ACAD_REACTORS
330
7DE0
102
}
330
7DE0
100
AcDbVisualStyle
  2
2dWireframe
 70
     4
 71
     0
 72
     2
 73
     0
 90
        0
 40
-0.6
 41
-30.0
 62
     5
 63
     7
 74
     1
 91
        4
 64
     7
 65
   257
 75
     1
175
     1
 42
1.0
 92
        0
 66
   257
 43
1.0
 76
     1
 77
     6
 78
     2
 67
     7
 79
     5
170
     0
171
     0
290
     0
174
     0
 93
        1
 44
0.0
173
     0
291
     0
 45
0.0
1001
ACAD
1000
AcDbSavedByObjectVersion
1070
     0
  0
VISUALSTYLE
  5
7DE5
102
{ACAD_XDICTIONARY
360
9873
102
}
102
{ACAD_REACTORS
330
7DE0
102
}
330
7DE0
100
AcDbVisualStyle
  2
Basic
 70
     7
 71
     1
 72
     0
 73
     1
 90
        0
 40
-0.6
 41
-30.0
 62
     5
 63
     7
 74
     0
 91
        4
 64
     7
 65
   257
 75
     1
175
     1
 42
1.0
 92
        8
 66
     7
 43
1.0
 76
     1
 77
     6
 78
     2
 67
     7
 79
     5
170
     0
171
     0
290
     0
174
     0
 93
        1
 44
0.0
173
     0
291
     1
 45
0.0
1001
ACAD
1000
AcDbSavedByObjectVersion
1070
     0
  0
VISUALSTYLE
  5
7DEC
102
{ACAD_XDICTIONARY
360
9881
102
}
102
{ACAD_REACTORS
330
7DE0
102
}
330
7DE0
100
AcDbVisualStyle
  2
Brighten
 70
    12
 71
     2
 72
     2
 73
     0
 90
        0
 40
-0.6
 41
-30.0
 62
     5
 63
     7
 74
     1
 91
        4
 64
     7
 65
   257
 75
     1
175
     1
 42
1.0
 92
        8
 66
     7
 43
1.0
 76
     1
 77
     6
 78
     2
 67
     7
 79
     5
170
     0
171
     0
290
     0
174
     0
 93
        1
 44
50.0
173
     0
291
     1
 45
0.0
1001
ACAD
1000
AcDbSavedByObjectVersion
1070
     0
  0
VISUALSTYLE
  5
7DF0
102
{ACAD_XDICTIONARY
360
9889
102
}
102
{ACAD_REACTORS
330
7DE0
102
}
330
7DE0
100
AcDbVisualStyle
  2
ColorChange
 70
    16
 71
     2
 72
     2
 73
     3
 90
        0
 40
-0.6
 41
-30.0
 62
     5
 63
     8
 74
     1
 91
        4
 64
     7
 65
   257
 75
     1
175
     1
 42
1.0
 92
        8
 66
     8
 43
1.0
 76
     1
 77
     6
 78
     2
 67
     7
 79
     5
170
     0
171
     0
290
     0
174
     0
 93
        1
 44
0.0
173
     0
291
     1
 45
0.0
1001
ACAD
1000
AcDbSavedByObjectVersion
1070
     0
  0
VISUALSTYLE
  5
7DE9
102
{ACAD_XDICTIONARY
360
987B
102
}
102
{ACAD_REACTORS
330
7DE0
102
}
330
7DE0
100
AcDbVisualStyle
  2
Conceptual
 70
     9
 71
     3
 72
     2
 73
     0
 90
        0
 40
-0.6
 41
-30.0
 62
     5
 63
     7
 74
     2
 91
        2
 64
     7
 65
   257
 75
     1
175
     1
 42
179.0
 92
        8
 66
     7
 43
1.0
 76
     1
 77
     6
 78
     2
 67
     7
 79
     3
170
     0
171
     0
290
     0
174
     0
 93
        1
 44
0.0
173
     0
291
     0
 45
0.0
1001
ACAD
1000
AcDbSavedByObjectVersion
1070
     0
  0
VISUALSTYLE
  5
7DEB
102
{ACAD_XDICTIONARY
360
987F
102
}
102
{ACAD_REACTORS
330
7DE0
102
}
330
7DE0
100
AcDbVisualStyle
  2
Dim
 70
    11
 71
     2
 72
     2
 73
     0
 90
        0
 40
-0.6
 41
-30.0
 62
     5
 63
     7
 74
     1
 91
        4
 64
     7
 65
   257
 75
     1
175
     1
 42
1.0
 92
        8
 66
     7
 43
1.0
 76
     1
 77
     6
 78
     2
 67
     7
 79
     5
170
     0
171
     0
290
     0
174
     0
 93
        1
 44
-50.0
173
     0
291
     1
 45
0.0
1001
ACAD
1000
AcDbSavedByObjectVersion
1070
     0
  0
VISUALSTYLE
  5
7DF8
102
{ACAD_XDICTIONARY
360
9899
102
}
102
{ACAD_REACTORS
330
7DE0
102
}
330
7DE0
100
AcDbVisualStyle
  2
EdgeColorOff
 70
    22
 71
     2
 72
     2
 73
     0
 90
        0
 40
-0.6
 41
-30.0
 62
     5
 63
     7
 74
     1
 91
        4
 64
     7
 65
   257
 75
     1
175
     1
 42
1.0
 92
        8
 66
     7
 43
1.0
 76
     1
 77
     6
 78
     2
 67
     7
 79
     5
170
     0
171
     0
290
     0
174
     0
 93
        1
 44
0.0
173
     0
291
     1
 45
0.0
1001
ACAD
1000
AcDbSavedByObjectVersion
1070
     0
  0
VISUALSTYLE
  5
7DEF
102
{ACAD_XDICTIONARY
360
9887
102
}
102
{ACAD_REACTORS
330
7DE0
102
}
330
7DE0
100
AcDbVisualStyle
  2
Facepattern
 70
    15
 71
     2
 72
     2
 73
     0
 90
        0
 40
-0.6
 41
-30.0
 62
     5
 63
     7
 74
     1
 91
        4
 64
     7
 65
   257
 75
     1
175
     1
 42
1.0
 92
        8
 66
     7
 43
1.0
 76
     1
 77
     6
 78
     2
 67
     7
 79
     5
170
     0
171
     0
290
     0
174
     0
 93
        1
 44
0.0
173
     0
291
     1
 45
0.0
1001
ACAD
1000
AcDbSavedByObjectVersion
1070
     0
  0
VISUALSTYLE
  5
7DE1
102
{ACAD_XDICTIONARY
360
986B
102
}
102
{ACAD_REACTORS
330
7DE0
102
}
330
7DE0
100
AcDbVisualStyle
  2
Flat
 70
     0
 71
     2
 72
     1
 73
     1
 90
        2
 40
-0.6
 41
30.0
 62
     5
 63
     7
 74
     0
 91
        0
 64
     7
 65
   257
 75
     1
175
     1
 42
1.0
 92
        8
 66
     7
 43
1.0
 76
     1
 77
     6
 78
     2
 67
     7
 79
     5
170
     0
171
     0
290
     0
174
     0
 93
       13
 44
0.0
173
     0
291
     1
 45
0.0
1001
ACAD
1000
AcDbSavedByObjectVersion
1070
     0
  0
VISUALSTYLE
  5
7DE2
102
{ACAD_XDICTIONARY
360
986D
102
}
102
{ACAD_REACTORS
330
7DE0
102
}
330
7DE0
100
AcDbVisualStyle
  2
FlatWithEdges
 70
     1
 71
     2
 72
     1
 73
     1
 90
        2
 40
-0.6
 41
30.0
 62
     5
 63
     7
 74
     1
 91
        0
 64
     7
 65
   257
 75
     1
175
     1
 42
1.0
 92
        0
 66
   257
 43
1.0
 76
     1
 77
     6
 78
     2
 67
     7
 79
     5
170
     0
171
     0
290
     0
174
     0
 93
       13
 44
0.0
173
     0
291
     1
 45
0.0
1001
ACAD
1000
AcDbSavedByObjectVersion
1070
     0
  0
VISUALSTYLE
  5
7DE3
102
{ACAD_XDICTIONARY
360
986F
102
}
102
{ACAD_REACTORS
330
7DE0
102
}
330
7DE0
100
AcDbVisualStyle
  2
Gouraud
 70
     2
 71
     2
 72
     2
 73
     1
 90
        2
 40
-0.6
 41
30.0
 62
     5
 63
     7
 74
     0
 91
        0
 64
     7
 65
   257
 75
     1
175
     1
 42
1.0
 92
        0
 66
     7
 43
1.0
 76
     1
 77
     6
 78
     2
 67
     7
 79
     5
170
     0
171
     0
290
     0
174
     0
 93
       13
 44
0.0
173
     0
291
     1
 45
0.0
1001
ACAD
1000
AcDbSavedByObjectVersion
1070
     0
  0
VISUALSTYLE
  5
7DE4
102
{ACAD_XDICTIONARY
360
9871
102
}
102
{ACAD_REACTORS
330
7DE0
102
}
330
7DE0
100
AcDbVisualStyle
  2
GouraudWithEdges
 70
     3
 71
     2
 72
     2
 73
     1
 90
        2
 40
-0.6
 41
30.0
 62
     5
 63
     7
 74
     1
 91
        0
 64
     7
 65
   257
 75
     1
175
     1
 42
1.0
 92
        0
 66
   257
 43
1.0
 76
     1
 77
     6
 78
     2
 67
     7
 79
     5
170
     0
171
     0
290
     0
174
     0
 93
       13
 44
0.0
173
     0
291
     1
 45
0.0
1001
ACAD
1000
AcDbSavedByObjectVersion
1070
     0
  0
VISUALSTYLE
  5
7DE8
102
{ACAD_XDICTIONARY
360
9879
102
}
102
{ACAD_REACTORS
330
7DE0
102
}
330
7DE0
100
AcDbVisualStyle
  2
Hidden
 70
     6
 71
     1
 72
     2
 73
     2
 90
        0
 40
-0.6
 41
-30.0
 62
     5
 63
     7
 74
     2
 91
        2
 64
     7
 65
   257
 75
     2
175
     1
 42
40.0
 92
        0
 66
   257
 43
1.0
 76
     1
 77
     6
 78
     2
 67
     7
 79
     3
170
     0
171
     0
290
     0
174
     0
 93
        1
 44
0.0
173
     0
291
     0
 45
0.0
1001
ACAD
1000
AcDbSavedByObjectVersion
1070
     0
  0
VISUALSTYLE
  5
7DF6
102
{ACAD_XDICTIONARY
360
9895
102
}
102
{ACAD_REACTORS
330
7DE0
102
}
330
7DE0
100
AcDbVisualStyle
  2
JitterOff
 70
    20
 71
     2
 72
     2
 73
     0
 90
        0
 40
-0.6
 41
-30.0
 62
     5
 63
     7
 74
     1
 91
        4
 64
     7
 65
   257
 75
     1
175
     1
 42
1.0
 92
       10
 66
     7
 43
1.0
 76
     1
 77
     6
 78
     2
 67
     7
 79
     5
170
     0
171
     0
290
     0
174
     0
 93
        1
 44
0.0
173
     0
291
     1
 45
0.0
1001
ACAD
1000
AcDbSavedByObjectVersion
1070
     0
  0
VISUALSTYLE
  5
7DEE
102
{ACAD_XDICTIONARY
360
9885
102
}
102
{ACAD_REACTORS
330
7DE0
102
}
330
7DE0
100
AcDbVisualStyle
  2
Linepattern
 70
    14
 71
     2
 72
     2
 73
     0
 90
        0
 40
-0.6
 41
-30.0
 62
     5
 63
     7
 74
     1
 91
        4
 64
     7
 65
   257
 75
     7
175
     7
 42
1.0
 92
        8
 66
     7
 43
1.0
 76
     1
 77
     6
 78
     2
 67
     7
 79
     5
170
     0
171
     0
290
     0
174
     0
 93
        1
 44
0.0
173
     0
291
     1
 45
0.0
1001
ACAD
1000
AcDbSavedByObjectVersion
1070
     0
  0
VISUALSTYLE
  5
7DF7
102
{ACAD_XDICTIONARY
360
9897
102
}
102
{ACAD_REACTORS
330
7DE0
102
}
330
7DE0
100
AcDbVisualStyle
  2
OverhangOff
 70
    21
 71
     2
 72
     2
 73
     0
 90
        0
 40
-0.6
 41
-30.0
 62
     5
 63
     7
 74
     1
 91
        4
 64
     7
 65
   257
 75
     1
175
     1
 42
1.0
 92
        9
 66
     7
 43
1.0
 76
     1
 77
     6
 78
     2
 67
     7
 79
     5
170
     0
171
     0
290
     0
174
     0
 93
        1
 44
0.0
173
     0
291
     1
 45
0.0
1001
ACAD
1000
AcDbSavedByObjectVersion
1070
     0
  0
VISUALSTYLE
  5
7DEA
102
{ACAD_XDICTIONARY
360
987D
102
}
102
{ACAD_REACTORS
330
7DE0
102
}
330
7DE0
100
AcDbVisualStyle
  2
Realistic
 70
     8
 71
     2
 72
     2
 73
     0
 90
        2
 40
-0.6
 41
30.0
 62
     5
 63
     7
 74
     0
 91
        0
 64
     7
 65
   257
 75
     1
175
     1
 42
1.0
 92
        8
 66
   257
 43
1.0
 76
     1
 77
     6
 78
     2
 67
     7
 79
     3
170
     0
171
     0
290
     0
174
     0
 93
       13
 44
0.0
173
     0
291
     0
 45
0.0
1001
ACAD
1000
AcDbSavedByObjectVersion
1070
     0
  0
VISUALSTYLE
  5
7DF5
102
{ACAD_XDICTIONARY
360
9893
102
}
102
{ACAD_REACTORS
330
7DE0
102
}
330
7DE0
100
AcDbVisualStyle
  2
Shaded
 70
    27
 71
     2
 72
     2
 73
     1
 90
        2
 40
-0.6
 41
30.0
 62
     5
 63
     7
 74
     0
 91
        4
 64
     7
 65
   257
 75
     1
175
     1
 42
1.0
 92
        8
 66
   257
 43
1.0
 76
     1
 77
     6
 78
     2
 67
     8
 79
     3
170
     0
171
     0
290
     0
174
     0
 93
        5
 44
0.0
173
     0
291
     0
 45
0.0
1001
ACAD
1000
AcDbSavedByObjectVersion
1070
     0
  0
VISUALSTYLE
  5
7DF4
102
{ACAD_XDICTIONARY
360
9891
102
}
102
{ACAD_REACTORS
330
7DE0
102
}
330
7DE0
100
AcDbVisualStyle
  2
Shaded with edges
 70
    26
 71
     2
 72
     2
 73
     1
 90
        2
 40
-0.6
 41
30.0
 62
     5
 63
     7
 74
     1
 91
       10
 64
     7
 65
   257
 75
     2
175
     1
 42
1.0
 92
        8
 66
   257
 43
1.0
 76
     1
 77
     6
 78
     2
 67
     7
 79
     3
170
     0
171
     0
290
     0
174
     0
 93
        5
 44
0.0
173
     0
291
     0
 45
0.0
1001
ACAD
1000
AcDbSavedByObjectVersion
1070
     0
  0
VISUALSTYLE
  5
7DF1
102
{ACAD_XDICTIONARY
360
988B
102
}
102
{ACAD_REACTORS
330
7DE0
102
}
330
7DE0
100
AcDbVisualStyle
  2
Shades of Gray
 70
    23
 71
     2
 72
     2
 73
     3
 90
        0
 40
-0.6
 41
-30.0
 62
     5
 63
     7
 74
     2
 91
        2
 64
     7
 65
     7
 75
     1
175
     1
 42
40.0
 92
        8
 66
     7
 43
1.0
 76
     1
 77
     6
 78
     2
 67
     7
 79
     3
170
     0
171
     0
290
     0
174
     0
 93
        1
 44
0.0
173
     0
291
     0
 45
0.0
1001
ACAD
1000
AcDbSavedByObjectVersion
1070
     0
  0
VISUALSTYLE
  5
7DF2
102
{ACAD_XDICTIONARY
360
988D
102
}
102
{ACAD_REACTORS
330
7DE0
102
}
330
7DE0
100
AcDbVisualStyle
  2
Sketchy
 70
    24
 71
     1
 72
     2
 73
     2
 90
        0
 40
-0.6
 41
-30.0
 62
     5
 63
     7
 74
     2
 91
        2
 64
     7
 65
     7
 75
     1
175
     1
 42
40.0
 92
       11
 66
     7
 43
1.0
 76
     1
 77
     6
 78
     2
 67
     7
 79
     6
170
     0
171
     0
290
     0
174
     0
 93
        1
 44
0.0
173
     0
291
     0
 45
0.0
1001
ACAD
1000
AcDbSavedByObjectVersion
1070
     0
  0
VISUALSTYLE
  5
7DED
102
{ACAD_XDICTIONARY
360
9883
102
}
102
{ACAD_REACTORS
330
7DE0
102
}
330
7DE0
100
AcDbVisualStyle
  2
Thicken
 70
    13
 71
     2
 72
     2
 73
     0
 90
        0
 40
-0.6
 41
-30.0
 62
     5
 63
     7
 74
     1
 91
        4
 64
     7
 65
   257
 75
     1
175
     1
 42
1.0
 92
       12
 66
     7
 43
1.0
 76
     1
 77
     6
 78
     2
 67
     7
 79
     5
170
     0
171
     0
290
     0
174
     0
 93
        1
 44
0.0
173
     0
291
     1
 45
0.0
1001
ACAD
1000
AcDbSavedByObjectVersion
1070
     0
  0
VISUALSTYLE
  5
7DE7
102
{ACAD_XDICTIONARY
360
9877
102
}
102
{ACAD_REACTORS
330
7DE0
102
}
330
7DE0
100
AcDbVisualStyle
  2
Wireframe
 70
     5
 71
     0
 72
     2
 73
     0
 90
        0
 40
-0.6
 41
-30.0
 62
     5
 63
     7
 74
     1
 91
        4
 64
     7
 65
   257
 75
     1
175
     1
 42
1.0
 92
        0
 66
   257
 43
1.0
 76
     1
 77
     6
 78
     2
 67
     7
 79
     3
170
     0
171
     0
290
     0
174
     0
 93
        1
 44
0.0
173
     0
291
     0
 45
0.0
1001
ACAD
1000
AcDbSavedByObjectVersion
1070
     0
  0
VISUALSTYLE
  5
7DF3
102
{ACAD_XDICTIONARY
360
988F
102
}
102
{ACAD_REACTORS
330
7DE0
102
}
330
7DE0
100
AcDbVisualStyle
  2
X-Ray
 70
    25
 71
     2
 72
     2
 73
     1
 90
        1
 40
0.5
 41
-30.0
 62
     5
 63
     7
 74
     1
 91
        0
 64
     7
 65
   257
 75
     1
175
     1
 42
1.0
 92
        8
 66
     7
 43
1.0
 76
     1
 77
     6
 78
     2
 67
     7
 79
     3
170
     0
171
     0
290
     0
174
     0
 93
       13
 44
0.0
173
     0
291
     0
 45
0.0
1001
ACAD
1000
AcDbSavedByObjectVersion
1070
     0
  0
DICTIONARYVAR
  5
9292
102
{ACAD_REACTORS
330
1BF
102
}
330
1BF
100
DictionaryVariables
280
     0
  1
1:1
  0
DICTIONARYVAR
  5
9291
102
{ACAD_REACTORS
330
1BF
102
}
330
1BF
100
DictionaryVariables
280
     0
  1
STANDARD
  0
DICTIONARYVAR
  5
9290
102
{ACAD_REACTORS
330
1BF
102
}
330
1BF
100
DictionaryVariables
280
     0
  1
STANDARD
  0
DICTIONARYVAR
  5
9294
102
{ACAD_REACTORS
330
1BF
102
}
330
1BF
100
DictionaryVariables
280
     0
  1
1
  0
DICTIONARYVAR
  5
9293
102
{ACAD_REACTORS
330
1BF
102
}
330
1BF
100
DictionaryVariables
280
     0
  1
0
  0
DICTIONARYVAR
  5
1C0
102
{ACAD_REACTORS
330
1BF
102
}
330
1BF
100
DictionaryVariables
280
     0
  1
96
  0
DICTIONARYVAR
  5
9862
102
{ACAD_REACTORS
330
1BF
102
}
330
1BF
100
DictionaryVariables
280
     0
  1
2
  0
DICTIONARY
  5
989C
330
7E12
100
AcDbDictionary
280
     1
281
     1
  3
ACAD_XREC_ROUNDTRIP
360
989D
  0
DICTIONARY
  5
989E
330
7E13
100
AcDbDictionary
280
     1
281
     1
  3
ACAD_XREC_ROUNDTRIP
360
989F
  0
DICTIONARY
  5
7DD1
330
7DD0
100
AcDbDictionary
280
     1
281
     1
  3
ACAD_XREC_ROUNDTRIP
360
9869
  3
BUMPTILE
360
7DD3
  3
DIFFUSETILE
360
7DD2
  3
OPACITYTILE
360
7DD6
  3
REFLECTIONTILE
360
7DD5
  3
REFRACTIONTILE
360
7DD7
  3
SPECULARTILE
360
7DD4
  0
DICTIONARY
  5
7DC9
330
7DC8
100
AcDbDictionary
280
     1
281
     1
  3
ACAD_XREC_ROUNDTRIP
360
9868
  3
BUMPTILE
360
7DCB
  3
DIFFUSETILE
360
7DCA
  3
OPACITYTILE
360
7DCE
  3
REFLECTIONTILE
360
7DCD
  3
REFRACTIONTILE
360
7DCF
  3
SPECULARTILE
360
7DCC
  0
DICTIONARY
  5
7DD9
330
7DD8
100
AcDbDictionary
280
     1
281
     1
  3
ACAD_XREC_ROUNDTRIP
360
986A
  3
BUMPTILE
360
7DDB
  3
DIFFUSETILE
360
7DDA
  3
OPACITYTILE
360
7DDE
  3
REFLECTIONTILE
360
7DDD
  3
REFRACTIONTILE
360
7DDF
  3
SPECULARTILE
360
7DDC
  0
DICTIONARY
  5
9864
330
7E0F
100
AcDbDictionary
280
     1
281
     1
  3
ACAD_XREC_ROUNDTRIP
360
9865
  0
DICTIONARY
  5
921F
330
7DFB
100
AcDbDictionary
280
     1
281
     1
  3
ACAD_ROUNDTRIP_2008_TABLESTYLE_CELLSTYLEMAP
360
9863
  3
ACAD_XREC_ROUNDTRIP
360
989B
  0
DICTIONARY
  5
9875
330
7DE6
100
AcDbDictionary
280
     1
281
     1
  3
ACAD_XREC_ROUNDTRIP
360
9876
  0
DICTIONARY
  5
9873
330
7DE5
100
AcDbDictionary
280
     1
281
     1
  3
ACAD_XREC_ROUNDTRIP
360
9874
  0
DICTIONARY
  5
9881
330
7DEC
100
AcDbDictionary
280
     1
281
     1
  3
ACAD_XREC_ROUNDTRIP
360
9882
  0
DICTIONARY
  5
9889
330
7DF0
100
AcDbDictionary
280
     1
281
     1
  3
ACAD_XREC_ROUNDTRIP
360
988A
  0
DICTIONARY
  5
987B
330
7DE9
100
AcDbDictionary
280
     1
281
     1
  3
ACAD_XREC_ROUNDTRIP
360
987C
  0
DICTIONARY
  5
987F
330
7DEB
100
AcDbDictionary
280
     1
281
     1
  3
ACAD_XREC_ROUNDTRIP
360
9880
  0
DICTIONARY
  5
9899
330
7DF8
100
AcDbDictionary
280
     1
281
     1
  3
ACAD_XREC_ROUNDTRIP
360
989A
  0
DICTIONARY
  5
9887
330
7DEF
100
AcDbDictionary
280
     1
281
     1
  3
ACAD_XREC_ROUNDTRIP
360
9888
  0
DICTIONARY
  5
986B
330
7DE1
100
AcDbDictionary
280
     1
281
     1
  3
ACAD_XREC_ROUNDTRIP
360
986C
  0
DICTIONARY
  5
986D
330
7DE2
100
AcDbDictionary
280
     1
281
     1
  3
ACAD_XREC_ROUNDTRIP
360
986E
  0
DICTIONARY
  5
986F
330
7DE3
100
AcDbDictionary
280
     1
281
     1
  3
ACAD_XREC_ROUNDTRIP
360
9870
  0
DICTIONARY
  5
9871
330
7DE4
100
AcDbDictionary
280
     1
281
     1
  3
ACAD_XREC_ROUNDTRIP
360
9872
  0
DICTIONARY
  5
9879
330
7DE8
100
AcDbDictionary
280
     1
281
     1
  3
ACAD_XREC_ROUNDTRIP
360
987A
  0
DICTIONARY
  5
9895
330
7DF6
100
AcDbDictionary
280
     1
281
     1
  3
ACAD_XREC_ROUNDTRIP
360
9896
  0
DICTIONARY
  5
9885
330
7DEE
100
AcDbDictionary
280
     1
281
     1
  3
ACAD_XREC_ROUNDTRIP
360
9886
  0
DICTIONARY
  5
9897
330
7DF7
100
AcDbDictionary
280
     1
281
     1
  3
ACAD_XREC_ROUNDTRIP
360
9898
  0
DICTIONARY
  5
987D
330
7DEA
100
AcDbDictionary
280
     1
281
     1
  3
ACAD_XREC_ROUNDTRIP
360
987E
  0
DICTIONARY
  5
9893
330
7DF5
100
AcDbDictionary
280
     1
281
     1
  3
ACAD_XREC_ROUNDTRIP
360
9894
  0
DICTIONARY
  5
9891
330
7DF4
100
AcDbDictionary
280
     1
281
     1
  3
ACAD_XREC_ROUNDTRIP
360
9892
  0
DICTIONARY
  5
988B
330
7DF1
100
AcDbDictionary
280
     1
281
     1
  3
ACAD_XREC_ROUNDTRIP
360
988C
  0
DICTIONARY
  5
988D
330
7DF2
100
AcDbDictionary
280
     1
281
     1
  3
ACAD_XREC_ROUNDTRIP
360
988E
  0
DICTIONARY
  5
9883
330
7DED
100
AcDbDictionary
280
     1
281
     1
  3
ACAD_XREC_ROUNDTRIP
360
9884
  0
DICTIONARY
  5
9877
330
7DE7
100
AcDbDictionary
280
     1
281
     1
  3
ACAD_XREC_ROUNDTRIP
360
9878
  0
DICTIONARY
  5
988F
330
7DF3
100
AcDbDictionary
280
     1
281
     1
  3
ACAD_XREC_ROUNDTRIP
360
9890
  0
XRECORD
  5
989D
102
{ACAD_REACTORS
330
989C
102
}
330
989C
100
AcDbXrecord
280
     1
102
SHADEPLOT
 70
     0
102
SHADEPLOTRESLEVEL
 70
     2
102
SHADEPLOTCUSTOMDPI
 70
   300
  0
XRECORD
  5
989F
102
{ACAD_REACTORS
330
989E
102
}
330
989E
100
AcDbXrecord
280
     1
102
SHADEPLOT
 70
     0
102
SHADEPLOTRESLEVEL
 70
     2
102
SHADEPLOTCUSTOMDPI
 70
   300
  0
XRECORD
  5
9869
102
{ACAD_REACTORS
330
7DD1
102
}
330
7DD1
100
AcDbXrecord
280
     1
102
MATERIAL
148
0.0
149
0.0
149
0.0
 93
        0
 94
      127
282
     0
 72
     0
 77
     0
171
     0
175
     0
179
     0
273
     0
  0
XRECORD
  5
7DD3
102
{ACAD_REACTORS
330
7DD1
102
}
330
7DD1
100
AcDbXrecord
280
     1
270
     1
271
     1
  0
XRECORD
  5
7DD2
102
{ACAD_REACTORS
330
7DD1
102
}
330
7DD1
100
AcDbXrecord
280
     1
270
     1
271
     1
  0
XRECORD
  5
7DD6
102
{ACAD_REACTORS
330
7DD1
102
}
330
7DD1
100
AcDbXrecord
280
     1
270
     1
271
     1
  0
XRECORD
  5
7DD5
102
{ACAD_REACTORS
330
7DD1
102
}
330
7DD1
100
AcDbXrecord
280
     1
270
     1
271
     1
  0
XRECORD
  5
7DD7
102
{ACAD_REACTORS
330
7DD1
102
}
330
7DD1
100
AcDbXrecord
280
     1
270
     1
271
     1
  0
XRECORD
  5
7DD4
102
{ACAD_REACTORS
330
7DD1
102
}
330
7DD1
100
AcDbXrecord
280
     1
270
     1
271
     1
  0
XRECORD
  5
9868
102
{ACAD_REACTORS
330
7DC9
102
}
330
7DC9
100
AcDbXrecord
280
     1
102
MATERIAL
148
0.0
149
0.0
149
0.0
 93
        0
 94
      127
282
     0
 72
     0
 77
     0
171
     0
175
     0
179
     0
273
     0
  0
XRECORD
  5
7DCB
102
{ACAD_REACTORS
330
7DC9
102
}
330
7DC9
100
AcDbXrecord
280
     1
270
     1
271
     1
  0
XRECORD
  5
7DCA
102
{ACAD_REACTORS
330
7DC9
102
}
330
7DC9
100
AcDbXrecord
280
     1
270
     1
271
     1
  0
XRECORD
  5
7DCE
102
{ACAD_REACTORS
330
7DC9
102
}
330
7DC9
100
AcDbXrecord
280
     1
270
     1
271
     1
  0
XRECORD
  5
7DCD
102
{ACAD_REACTORS
330
7DC9
102
}
330
7DC9
100
AcDbXrecord
280
     1
270
     1
271
     1
  0
XRECORD
  5
7DCF
102
{ACAD_REACTORS
330
7DC9
102
}
330
7DC9
100
AcDbXrecord
280
     1
270
     1
271
     1
  0
XRECORD
  5
7DCC
102
{ACAD_REACTORS
330
7DC9
102
}
330
7DC9
100
AcDbXrecord
280
     1
270
     1
271
     1
  0
XRECORD
  5
986A
102
{ACAD_REACTORS
330
7DD9
102
}
330
7DD9
100
AcDbXrecord
280
     1
102
MATERIAL
148
0.0
149
0.0
149
0.0
 93
        0
 94
      127
282
     0
 72
     0
 77
     0
171
     0
175
     0
179
     0
273
     0
  0
XRECORD
  5
7DDB
102
{ACAD_REACTORS
330
7DD9
102
}
330
7DD9
100
AcDbXrecord
280
     1
270
     1
271
     1
  0
XRECORD
  5
7DDA
102
{ACAD_REACTORS
330
7DD9
102
}
330
7DD9
100
AcDbXrecord
280
     1
270
     1
271
     1
  0
XRECORD
  5
7DDE
102
{ACAD_REACTORS
330
7DD9
102
}
330
7DD9
100
AcDbXrecord
280
     1
270
     1
271
     1
  0
XRECORD
  5
7DDD
102
{ACAD_REACTORS
330
7DD9
102
}
330
7DD9
100
AcDbXrecord
280
     1
270
     1
271
     1
  0
XRECORD
  5
7DDF
102
{ACAD_REACTORS
330
7DD9
102
}
330
7DD9
100
AcDbXrecord
280
     1
270
     1
271
     1
  0
XRECORD
  5
7DDC
102
{ACAD_REACTORS
330
7DD9
102
}
330
7DD9
100
AcDbXrecord
280
     1
270
     1
271
     1
  0
XRECORD
  5
9865
102
{ACAD_REACTORS
330
9864
102
}
330
9864
100
AcDbXrecord
280
     1
102
ACAD_ROUNDTRIP_2012_MLEADER_STYLE
298
     1
  0
CELLSTYLEMAP
  5
9863
102
{ACAD_REACTORS
330
921F
102
}
330
921F
100
AcDbCellStyleMap
 90
        3
300
CELLSTYLE
  1
TABLEFORMAT_BEGIN
 90
        5
170
     1
 91
        0
 92
    32768
 62
   257
 93
        1
300
CONTENTFORMAT
  1
CONTENTFORMAT_BEGIN
 90
        0
 91
        0
 92
      512
 93
        0
300

 40
0.0
140
1.0
 94
        5
 62
     0
340
10
144
0.25
309
CONTENTFORMAT_END
171
     0
 94
        0
309
TABLEFORMAT_END
  1
CELLSTYLE_BEGIN
 90
        1
 91
        1
300
_TITLE
309
CELLSTYLE_END
300
CELLSTYLE
  1
TABLEFORMAT_BEGIN
 90
        5
170
     1
 91
        0
 92
        0
 62
   257
 93
        1
300
CONTENTFORMAT
  1
CONTENTFORMAT_BEGIN
 90
        0
 91
        0
 92
      512
 93
        0
300

 40
0.0
140
1.0
 94
        5
 62
     0
340
10
144
0.18
309
CONTENTFORMAT_END
171
     0
 94
        0
309
TABLEFORMAT_END
  1
CELLSTYLE_BEGIN
 90
        2
 91
        1
300
_HEADER
309
CELLSTYLE_END
300
CELLSTYLE
  1
TABLEFORMAT_BEGIN
 90
        5
170
     1
 91
        0
 92
        0
 62
   257
 93
        1
300
CONTENTFORMAT
  1
CONTENTFORMAT_BEGIN
 90
        0
 91
        0
 92
      512
 93
        0
300

 40
0.0
140
1.0
 94
        2
 62
     0
340
10
144
0.18
309
CONTENTFORMAT_END
171
     0
 94
        0
309
TABLEFORMAT_END
  1
CELLSTYLE_BEGIN
 90
        3
 91
        2
300
_DATA
309
CELLSTYLE_END
  0
XRECORD
  5
989B
102
{ACAD_REACTORS
330
921F
102
}
330
921F
100
AcDbXrecord
280
     1
102
ACAD_ROUNDTRIP_PRE2007_TABLESTYLE
 90
      512
 91
        0
  1

 92
      512
 93
        0
  2

 94
      512
 95
        0
  3

  0
XRECORD
  5
9876
102
{ACAD_REACTORS
330
9875
102
}
330
9875
100
AcDbXrecord
280
     1
102
RTVSPropertyOp0
 70
     1
102
RTVSPropertyOp1
 70
     1
102
RTVSPropertyOp2
 70
     1
102
RTVSPropertyOp3
 70
     1
102
RTVSPropertyOp4
 70
     1
102
RTVSPropertyOp5
 70
     1
102
RTVSPropertyOp6
 70
     1
102
RTVSPropertyOp7
 70
     1
102
RTVSPropertyOp8
 70
     1
102
RTVSPropertyOp9
 70
     1
102
RTVSPropertyOp10
 70
     1
102
RTVSPropertyOp11
 70
     1
102
RTVSPropertyOp12
 70
     1
102
RTVSPropertyOp13
 70
     1
102
RTVSPropertyOp14
 70
     1
102
RTVSPropertyOp15
 70
     1
102
RTVSPropertyOp16
 70
     1
102
RTVSPropertyOp17
 70
     1
102
RTVSPropertyOp18
 70
     1
102
RTVSPropertyOp19
 70
     1
102
RTVSPropertyOp20
 70
     1
102
RTVSPropertyOp21
 70
     1
102
RTVSPropertyOp22
 70
     1
102
RTVSPropertyOp23
 70
     1
102
RTVSPropertyOp24
 70
     1
102
RTVSPropertyOp25
 70
     1
102
RTVSPropertyOp26
 70
     1
102
RTVSPropertyOp27
 70
     1
102
RTVSPropertyOp28
 70
     1
102
RTVSPropertyOp29
 70
     1
102
RTVSPropertyOp30
 70
     1
102
RTVSPropertyOp31
 70
     1
102
RTVSPropertyOp32
 70
     1
  0
XRECORD
  5
9874
102
{ACAD_REACTORS
330
9873
102
}
330
9873
100
AcDbXrecord
280
     1
102
RTVSPropertyOp0
 70
     1
102
RTVSPropertyOp1
 70
     1
102
RTVSPropertyOp2
 70
     1
102
RTVSPropertyOp3
 70
     1
102
RTVSPropertyOp4
 70
     1
102
RTVSPropertyOp5
 70
     1
102
RTVSPropertyOp6
 70
     1
102
RTVSPropertyOp7
 70
     1
102
RTVSPropertyOp8
 70
     1
102
RTVSPropertyOp9
 70
     1
102
RTVSPropertyOp10
 70
     1
102
RTVSPropertyOp11
 70
     1
102
RTVSPropertyOp12
 70
     1
102
RTVSPropertyOp13
 70
     1
102
RTVSPropertyOp14
 70
     1
102
RTVSPropertyOp15
 70
     1
102
RTVSPropertyOp16
 70
     1
102
RTVSPropertyOp17
 70
     1
102
RTVSPropertyOp18
 70
     1
102
RTVSPropertyOp19
 70
     1
102
RTVSPropertyOp20
 70
     1
102
RTVSPropertyOp21
 70
     1
102
RTVSPropertyOp22
 70
     1
102
RTVSPropertyOp23
 70
     1
102
RTVSPropertyOp24
 70
     1
102
RTVSPropertyOp25
 70
     1
102
RTVSPropertyOp26
 70
     1
102
RTVSPropertyOp27
 70
     1
102
RTVSPropertyOp28
 70
     1
102
RTVSPropertyOp29
 70
     1
102
RTVSPropertyOp30
 70
     1
102
RTVSPropertyOp31
 70
     1
102
RTVSPropertyOp32
 70
     1
  0
XRECORD
  5
9882
102
{ACAD_REACTORS
330
9881
102
}
330
9881
100
AcDbXrecord
280
     1
102
RTVSPropertyOp0
 70
     1
102
RTVSPropertyOp1
 70
     1
102
RTVSPropertyOp2
 70
     1
102
RTVSPropertyOp3
 70
     1
102
RTVSPropertyOp4
 70
     1
102
RTVSPropertyOp5
 70
     1
102
RTVSPropertyOp6
 70
     1
102
RTVSPropertyOp7
 70
     1
102
RTVSPropertyOp8
 70
     1
102
RTVSPropertyOp9
 70
     1
102
RTVSPropertyOp10
 70
     1
102
RTVSPropertyOp11
 70
     1
102
RTVSPropertyOp12
 70
     1
102
RTVSPropertyOp13
 70
     1
102
RTVSPropertyOp14
 70
     1
102
RTVSPropertyOp15
 70
     1
102
RTVSPropertyOp16
 70
     1
102
RTVSPropertyOp17
 70
     1
102
RTVSPropertyOp18
 70
     1
102
RTVSPropertyOp19
 70
     1
102
RTVSPropertyOp20
 70
     1
102
RTVSPropertyOp21
 70
     1
102
RTVSPropertyOp22
 70
     1
102
RTVSPropertyOp23
 70
     1
102
RTVSPropertyOp24
 70
     1
102
RTVSPropertyOp25
 70
     1
102
RTVSPropertyOp26
 70
     1
102
RTVSPropertyOp27
 70
     1
102
RTVSPropertyOp28
 70
     1
102
RTVSPropertyOp29
 70
     1
102
RTVSPropertyOp30
 70
     1
102
RTVSPropertyOp31
 70
     1
102
RTVSPropertyOp32
 70
     1
  0
XRECORD
  5
988A
102
{ACAD_REACTORS
330
9889
102
}
330
9889
100
AcDbXrecord
280
     1
102
RTVSPropertyOp0
 70
     1
102
RTVSPropertyOp1
 70
     1
102
RTVSPropertyOp2
 70
     1
102
RTVSPropertyOp3
 70
     1
102
RTVSPropertyOp4
 70
     1
102
RTVSPropertyOp5
 70
     1
102
RTVSPropertyOp6
 70
     1
102
RTVSPropertyOp7
 70
     1
102
RTVSPropertyOp8
 70
     1
102
RTVSPropertyOp9
 70
     1
102
RTVSPropertyOp10
 70
     1
102
RTVSPropertyOp11
 70
     1
102
RTVSPropertyOp12
 70
     1
102
RTVSPropertyOp13
 70
     1
102
RTVSPropertyOp14
 70
     1
102
RTVSPropertyOp15
 70
     1
102
RTVSPropertyOp16
 70
     1
102
RTVSPropertyOp17
 70
     1
102
RTVSPropertyOp18
 70
     1
102
RTVSPropertyOp19
 70
     1
102
RTVSPropertyOp20
 70
     1
102
RTVSPropertyOp21
 70
     1
102
RTVSPropertyOp22
 70
     1
102
RTVSPropertyOp23
 70
     1
102
RTVSPropertyOp24
 70
     1
102
RTVSPropertyOp25
 70
     1
102
RTVSPropertyOp26
 70
     1
102
RTVSPropertyOp27
 70
     1
102
RTVSPropertyOp28
 70
     1
102
RTVSPropertyOp29
 70
     1
102
RTVSPropertyOp30
 70
     1
102
RTVSPropertyOp31
 70
     1
102
RTVSPropertyOp32
 70
     1
  0
XRECORD
  5
987C
102
{ACAD_REACTORS
330
987B
102
}
330
987B
100
AcDbXrecord
280
     1
102
RTVSPropertyOp0
 70
     1
102
RTVSPropertyOp1
 70
     1
102
RTVSPropertyOp2
 70
     1
102
RTVSPropertyOp3
 70
     1
102
RTVSPropertyOp4
 70
     1
102
RTVSPropertyOp5
 70
     1
102
RTVSPropertyOp6
 70
     1
102
RTVSPropertyOp7
 70
     1
102
RTVSPropertyOp8
 70
     1
102
RTVSPropertyOp9
 70
     1
102
RTVSPropertyOp10
 70
     1
102
RTVSPropertyOp11
 70
     1
102
RTVSPropertyOp12
 70
     1
102
RTVSPropertyOp13
 70
     1
102
RTVSPropertyOp14
 70
     1
102
RTVSPropertyOp15
 70
     1
102
RTVSPropertyOp16
 70
     1
102
RTVSPropertyOp17
 70
     1
102
RTVSPropertyOp18
 70
     1
102
RTVSPropertyOp19
 70
     1
102
RTVSPropertyOp20
 70
     1
102
RTVSPropertyOp21
 70
     1
102
RTVSPropertyOp22
 70
     1
102
RTVSPropertyOp23
 70
     1
102
RTVSPropertyOp24
 70
     1
102
RTVSPropertyOp25
 70
     1
102
RTVSPropertyOp26
 70
     1
102
RTVSPropertyOp27
 70
     1
102
RTVSPropertyOp28
 70
     1
102
RTVSPropertyOp29
 70
     1
102
RTVSPropertyOp30
 70
     1
102
RTVSPropertyOp31
 70
     1
102
RTVSPropertyOp32
 70
     1
  0
XRECORD
  5
9880
102
{ACAD_REACTORS
330
987F
102
}
330
987F
100
AcDbXrecord
280
     1
102
RTVSPropertyOp0
 70
     1
102
RTVSPropertyOp1
 70
     1
102
RTVSPropertyOp2
 70
     1
102
RTVSPropertyOp3
 70
     1
102
RTVSPropertyOp4
 70
     1
102
RTVSPropertyOp5
 70
     1
102
RTVSPropertyOp6
 70
     1
102
RTVSPropertyOp7
 70
     1
102
RTVSPropertyOp8
 70
     1
102
RTVSPropertyOp9
 70
     1
102
RTVSPropertyOp10
 70
     1
102
RTVSPropertyOp11
 70
     1
102
RTVSPropertyOp12
 70
     1
102
RTVSPropertyOp13
 70
     1
102
RTVSPropertyOp14
 70
     1
102
RTVSPropertyOp15
 70
     1
102
RTVSPropertyOp16
 70
     1
102
RTVSPropertyOp17
 70
     1
102
RTVSPropertyOp18
 70
     1
102
RTVSPropertyOp19
 70
     1
102
RTVSPropertyOp20
 70
     1
102
RTVSPropertyOp21
 70
     1
102
RTVSPropertyOp22
 70
     1
102
RTVSPropertyOp23
 70
     1
102
RTVSPropertyOp24
 70
     1
102
RTVSPropertyOp25
 70
     1
102
RTVSPropertyOp26
 70
     1
102
RTVSPropertyOp27
 70
     1
102
RTVSPropertyOp28
 70
     1
102
RTVSPropertyOp29
 70
     1
102
RTVSPropertyOp30
 70
     1
102
RTVSPropertyOp31
 70
     1
102
RTVSPropertyOp32
 70
     1
  0
XRECORD
  5
989A
102
{ACAD_REACTORS
330
9899
102
}
330
9899
100
AcDbXrecord
280
     1
102
RTVSPropertyOp0
 70
     0
102
RTVSPropertyOp1
 70
     0
102
RTVSPropertyOp2
 70
     0
102
RTVSPropertyOp3
 70
     0
102
RTVSPropertyOp4
 70
     0
102
RTVSPropertyOp5
 70
     0
102
RTVSPropertyOp6
 70
     0
102
RTVSPropertyOp7
 70
     0
102
RTVSPropertyOp8
 70
     0
102
RTVSPropertyOp9
 70
     0
102
RTVSPropertyOp10
 70
     0
102
RTVSPropertyOp11
 70
     0
102
RTVSPropertyOp12
 70
     0
102
RTVSPropertyOp13
 70
     0
102
RTVSPropertyOp14
 70
     2
102
RTVSPropertyOp15
 70
     0
102
RTVSPropertyOp16
 70
     0
102
RTVSPropertyOp17
 70
     0
102
RTVSPropertyOp18
 70
     0
102
RTVSPropertyOp19
 70
     0
102
RTVSPropertyOp20
 70
     0
102
RTVSPropertyOp21
 70
     0
102
RTVSPropertyOp22
 70
     0
102
RTVSPropertyOp23
 70
     0
102
RTVSPropertyOp24
 70
     0
102
RTVSPropertyOp25
 70
     0
102
RTVSPropertyOp26
 70
     0
102
RTVSPropertyOp27
 70
     0
102
RTVSPropertyOp28
 70
     0
102
RTVSPropertyOp29
 70
     0
102
RTVSPropertyOp30
 70
     0
102
RTVSPropertyOp31
 70
     0
102
RTVSPropertyOp32
 70
     0
  0
XRECORD
  5
9888
102
{ACAD_REACTORS
330
9887
102
}
330
9887
100
AcDbXrecord
280
     1
102
RTVSPropertyOp0
 70
     1
102
RTVSPropertyOp1
 70
     1
102
RTVSPropertyOp2
 70
     1
102
RTVSPropertyOp3
 70
     1
102
RTVSPropertyOp4
 70
     1
102
RTVSPropertyOp5
 70
     1
102
RTVSPropertyOp6
 70
     1
102
RTVSPropertyOp7
 70
     1
102
RTVSPropertyOp8
 70
     1
102
RTVSPropertyOp9
 70
     1
102
RTVSPropertyOp10
 70
     1
102
RTVSPropertyOp11
 70
     1
102
RTVSPropertyOp12
 70
     1
102
RTVSPropertyOp13
 70
     1
102
RTVSPropertyOp14
 70
     1
102
RTVSPropertyOp15
 70
     1
102
RTVSPropertyOp16
 70
     1
102
RTVSPropertyOp17
 70
     1
102
RTVSPropertyOp18
 70
     1
102
RTVSPropertyOp19
 70
     1
102
RTVSPropertyOp20
 70
     1
102
RTVSPropertyOp21
 70
     1
102
RTVSPropertyOp22
 70
     1
102
RTVSPropertyOp23
 70
     1
102
RTVSPropertyOp24
 70
     1
102
RTVSPropertyOp25
 70
     1
102
RTVSPropertyOp26
 70
     1
102
RTVSPropertyOp27
 70
     1
102
RTVSPropertyOp28
 70
     1
102
RTVSPropertyOp29
 70
     1
102
RTVSPropertyOp30
 70
     1
102
RTVSPropertyOp31
 70
     1
102
RTVSPropertyOp32
 70
     1
  0
XRECORD
  5
986C
102
{ACAD_REACTORS
330
986B
102
}
330
986B
100
AcDbXrecord
280
     1
102
RTVSPropertyOp0
 70
     1
102
RTVSPropertyOp1
 70
     1
102
RTVSPropertyOp2
 70
     1
102
RTVSPropertyOp3
 70
     1
102
RTVSPropertyOp4
 70
     1
102
RTVSPropertyOp5
 70
     1
102
RTVSPropertyOp6
 70
     1
102
RTVSPropertyOp7
 70
     1
102
RTVSPropertyOp8
 70
     1
102
RTVSPropertyOp9
 70
     1
102
RTVSPropertyOp10
 70
     1
102
RTVSPropertyOp11
 70
     1
102
RTVSPropertyOp12
 70
     1
102
RTVSPropertyOp13
 70
     1
102
RTVSPropertyOp14
 70
     1
102
RTVSPropertyOp15
 70
     1
102
RTVSPropertyOp16
 70
     1
102
RTVSPropertyOp17
 70
     1
102
RTVSPropertyOp18
 70
     1
102
RTVSPropertyOp19
 70
     1
102
RTVSPropertyOp20
 70
     1
102
RTVSPropertyOp21
 70
     1
102
RTVSPropertyOp22
 70
     1
102
RTVSPropertyOp23
 70
     1
102
RTVSPropertyOp24
 70
     1
102
RTVSPropertyOp25
 70
     1
102
RTVSPropertyOp26
 70
     1
102
RTVSPropertyOp27
 70
     1
102
RTVSPropertyOp28
 70
     1
102
RTVSPropertyOp29
 70
     1
102
RTVSPropertyOp30
 70
     1
102
RTVSPropertyOp31
 70
     1
102
RTVSPropertyOp32
 70
     1
  0
XRECORD
  5
986E
102
{ACAD_REACTORS
330
986D
102
}
330
986D
100
AcDbXrecord
280
     1
102
RTVSPropertyOp0
 70
     1
102
RTVSPropertyOp1
 70
     1
102
RTVSPropertyOp2
 70
     1
102
RTVSPropertyOp3
 70
     1
102
RTVSPropertyOp4
 70
     1
102
RTVSPropertyOp5
 70
     1
102
RTVSPropertyOp6
 70
     1
102
RTVSPropertyOp7
 70
     1
102
RTVSPropertyOp8
 70
     1
102
RTVSPropertyOp9
 70
     1
102
RTVSPropertyOp10
 70
     1
102
RTVSPropertyOp11
 70
     1
102
RTVSPropertyOp12
 70
     1
102
RTVSPropertyOp13
 70
     1
102
RTVSPropertyOp14
 70
     1
102
RTVSPropertyOp15
 70
     1
102
RTVSPropertyOp16
 70
     1
102
RTVSPropertyOp17
 70
     1
102
RTVSPropertyOp18
 70
     1
102
RTVSPropertyOp19
 70
     1
102
RTVSPropertyOp20
 70
     1
102
RTVSPropertyOp21
 70
     1
102
RTVSPropertyOp22
 70
     1
102
RTVSPropertyOp23
 70
     1
102
RTVSPropertyOp24
 70
     1
102
RTVSPropertyOp25
 70
     1
102
RTVSPropertyOp26
 70
     1
102
RTVSPropertyOp27
 70
     1
102
RTVSPropertyOp28
 70
     1
102
RTVSPropertyOp29
 70
     1
102
RTVSPropertyOp30
 70
     1
102
RTVSPropertyOp31
 70
     1
102
RTVSPropertyOp32
 70
     1
  0
XRECORD
  5
9870
102
{ACAD_REACTORS
330
986F
102
}
330
986F
100
AcDbXrecord
280
     1
102
RTVSPropertyOp0
 70
     1
102
RTVSPropertyOp1
 70
     1
102
RTVSPropertyOp2
 70
     1
102
RTVSPropertyOp3
 70
     1
102
RTVSPropertyOp4
 70
     1
102
RTVSPropertyOp5
 70
     1
102
RTVSPropertyOp6
 70
     1
102
RTVSPropertyOp7
 70
     1
102
RTVSPropertyOp8
 70
     1
102
RTVSPropertyOp9
 70
     1
102
RTVSPropertyOp10
 70
     1
102
RTVSPropertyOp11
 70
     1
102
RTVSPropertyOp12
 70
     1
102
RTVSPropertyOp13
 70
     1
102
RTVSPropertyOp14
 70
     1
102
RTVSPropertyOp15
 70
     1
102
RTVSPropertyOp16
 70
     1
102
RTVSPropertyOp17
 70
     1
102
RTVSPropertyOp18
 70
     1
102
RTVSPropertyOp19
 70
     1
102
RTVSPropertyOp20
 70
     1
102
RTVSPropertyOp21
 70
     1
102
RTVSPropertyOp22
 70
     1
102
RTVSPropertyOp23
 70
     1
102
RTVSPropertyOp24
 70
     1
102
RTVSPropertyOp25
 70
     1
102
RTVSPropertyOp26
 70
     1
102
RTVSPropertyOp27
 70
     1
102
RTVSPropertyOp28
 70
     1
102
RTVSPropertyOp29
 70
     1
102
RTVSPropertyOp30
 70
     1
102
RTVSPropertyOp31
 70
     1
102
RTVSPropertyOp32
 70
     1
  0
XRECORD
  5
9872
102
{ACAD_REACTORS
330
9871
102
}
330
9871
100
AcDbXrecord
280
     1
102
RTVSPropertyOp0
 70
     1
102
RTVSPropertyOp1
 70
     1
102
RTVSPropertyOp2
 70
     1
102
RTVSPropertyOp3
 70
     1
102
RTVSPropertyOp4
 70
     1
102
RTVSPropertyOp5
 70
     1
102
RTVSPropertyOp6
 70
     1
102
RTVSPropertyOp7
 70
     1
102
RTVSPropertyOp8
 70
     1
102
RTVSPropertyOp9
 70
     1
102
RTVSPropertyOp10
 70
     1
102
RTVSPropertyOp11
 70
     1
102
RTVSPropertyOp12
 70
     1
102
RTVSPropertyOp13
 70
     1
102
RTVSPropertyOp14
 70
     1
102
RTVSPropertyOp15
 70
     1
102
RTVSPropertyOp16
 70
     1
102
RTVSPropertyOp17
 70
     1
102
RTVSPropertyOp18
 70
     1
102
RTVSPropertyOp19
 70
     1
102
RTVSPropertyOp20
 70
     1
102
RTVSPropertyOp21
 70
     1
102
RTVSPropertyOp22
 70
     1
102
RTVSPropertyOp23
 70
     1
102
RTVSPropertyOp24
 70
     1
102
RTVSPropertyOp25
 70
     1
102
RTVSPropertyOp26
 70
     1
102
RTVSPropertyOp27
 70
     1
102
RTVSPropertyOp28
 70
     1
102
RTVSPropertyOp29
 70
     1
102
RTVSPropertyOp30
 70
     1
102
RTVSPropertyOp31
 70
     1
102
RTVSPropertyOp32
 70
     1
  0
XRECORD
  5
987A
102
{ACAD_REACTORS
330
9879
102
}
330
9879
100
AcDbXrecord
280
     1
102
RTVSPropertyOp0
 70
     1
102
RTVSPropertyOp1
 70
     1
102
RTVSPropertyOp2
 70
     1
102
RTVSPropertyOp3
 70
     1
102
RTVSPropertyOp4
 70
     1
102
RTVSPropertyOp5
 70
     1
102
RTVSPropertyOp6
 70
     1
102
RTVSPropertyOp7
 70
     1
102
RTVSPropertyOp8
 70
     1
102
RTVSPropertyOp9
 70
     1
102
RTVSPropertyOp10
 70
     1
102
RTVSPropertyOp11
 70
     1
102
RTVSPropertyOp12
 70
     1
102
RTVSPropertyOp13
 70
     1
102
RTVSPropertyOp14
 70
     1
102
RTVSPropertyOp15
 70
     1
102
RTVSPropertyOp16
 70
     1
102
RTVSPropertyOp17
 70
     1
102
RTVSPropertyOp18
 70
     1
102
RTVSPropertyOp19
 70
     1
102
RTVSPropertyOp20
 70
     1
102
RTVSPropertyOp21
 70
     1
102
RTVSPropertyOp22
 70
     1
102
RTVSPropertyOp23
 70
     1
102
RTVSPropertyOp24
 70
     1
102
RTVSPropertyOp25
 70
     1
102
RTVSPropertyOp26
 70
     1
102
RTVSPropertyOp27
 70
     1
102
RTVSPropertyOp28
 70
     1
102
RTVSPropertyOp29
 70
     1
102
RTVSPropertyOp30
 70
     1
102
RTVSPropertyOp31
 70
     1
102
RTVSPropertyOp32
 70
     1
  0
XRECORD
  5
9896
102
{ACAD_REACTORS
330
9895
102
}
330
9895
100
AcDbXrecord
280
     1
102
RTVSPropertyOp0
 70
     0
102
RTVSPropertyOp1
 70
     0
102
RTVSPropertyOp2
 70
     0
102
RTVSPropertyOp3
 70
     0
102
RTVSPropertyOp4
 70
     0
102
RTVSPropertyOp5
 70
     0
102
RTVSPropertyOp6
 70
     0
102
RTVSPropertyOp7
 70
     0
102
RTVSPropertyOp8
 70
     0
102
RTVSPropertyOp9
 70
     0
102
RTVSPropertyOp10
 70
     0
102
RTVSPropertyOp11
 70
     0
102
RTVSPropertyOp12
 70
     0
102
RTVSPropertyOp13
 70
     0
102
RTVSPropertyOp14
 70
     2
102
RTVSPropertyOp15
 70
     0
102
RTVSPropertyOp16
 70
     0
102
RTVSPropertyOp17
 70
     0
102
RTVSPropertyOp18
 70
     0
102
RTVSPropertyOp19
 70
     0
102
RTVSPropertyOp20
 70
     0
102
RTVSPropertyOp21
 70
     0
102
RTVSPropertyOp22
 70
     0
102
RTVSPropertyOp23
 70
     0
102
RTVSPropertyOp24
 70
     0
102
RTVSPropertyOp25
 70
     0
102
RTVSPropertyOp26
 70
     0
102
RTVSPropertyOp27
 70
     0
102
RTVSPropertyOp28
 70
     0
102
RTVSPropertyOp29
 70
     0
102
RTVSPropertyOp30
 70
     0
102
RTVSPropertyOp31
 70
     0
102
RTVSPropertyOp32
 70
     0
  0
XRECORD
  5
9886
102
{ACAD_REACTORS
330
9885
102
}
330
9885
100
AcDbXrecord
280
     1
102
RTVSPropertyOp0
 70
     1
102
RTVSPropertyOp1
 70
     1
102
RTVSPropertyOp2
 70
     1
102
RTVSPropertyOp3
 70
     1
102
RTVSPropertyOp4
 70
     1
102
RTVSPropertyOp5
 70
     1
102
RTVSPropertyOp6
 70
     1
102
RTVSPropertyOp7
 70
     1
102
RTVSPropertyOp8
 70
     1
102
RTVSPropertyOp9
 70
     1
102
RTVSPropertyOp10
 70
     1
102
RTVSPropertyOp11
 70
     1
102
RTVSPropertyOp12
 70
     1
102
RTVSPropertyOp13
 70
     1
102
RTVSPropertyOp14
 70
     1
102
RTVSPropertyOp15
 70
     1
102
RTVSPropertyOp16
 70
     1
102
RTVSPropertyOp17
 70
     1
102
RTVSPropertyOp18
 70
     1
102
RTVSPropertyOp19
 70
     1
102
RTVSPropertyOp20
 70
     1
102
RTVSPropertyOp21
 70
     1
102
RTVSPropertyOp22
 70
     1
102
RTVSPropertyOp23
 70
     1
102
RTVSPropertyOp24
 70
     1
102
RTVSPropertyOp25
 70
     1
102
RTVSPropertyOp26
 70
     1
102
RTVSPropertyOp27
 70
     1
102
RTVSPropertyOp28
 70
     1
102
RTVSPropertyOp29
 70
     1
102
RTVSPropertyOp30
 70
     1
102
RTVSPropertyOp31
 70
     1
102
RTVSPropertyOp32
 70
     1
  0
XRECORD
  5
9898
102
{ACAD_REACTORS
330
9897
102
}
330
9897
100
AcDbXrecord
280
     1
102
RTVSPropertyOp0
 70
     0
102
RTVSPropertyOp1
 70
     0
102
RTVSPropertyOp2
 70
     0
102
RTVSPropertyOp3
 70
     0
102
RTVSPropertyOp4
 70
     0
102
RTVSPropertyOp5
 70
     0
102
RTVSPropertyOp6
 70
     0
102
RTVSPropertyOp7
 70
     0
102
RTVSPropertyOp8
 70
     0
102
RTVSPropertyOp9
 70
     0
102
RTVSPropertyOp10
 70
     0
102
RTVSPropertyOp11
 70
     0
102
RTVSPropertyOp12
 70
     0
102
RTVSPropertyOp13
 70
     0
102
RTVSPropertyOp14
 70
     2
102
RTVSPropertyOp15
 70
     0
102
RTVSPropertyOp16
 70
     0
102
RTVSPropertyOp17
 70
     0
102
RTVSPropertyOp18
 70
     0
102
RTVSPropertyOp19
 70
     0
102
RTVSPropertyOp20
 70
     0
102
RTVSPropertyOp21
 70
     0
102
RTVSPropertyOp22
 70
     0
102
RTVSPropertyOp23
 70
     0
102
RTVSPropertyOp24
 70
     0
102
RTVSPropertyOp25
 70
     0
102
RTVSPropertyOp26
 70
     0
102
RTVSPropertyOp27
 70
     0
102
RTVSPropertyOp28
 70
     0
102
RTVSPropertyOp29
 70
     0
102
RTVSPropertyOp30
 70
     0
102
RTVSPropertyOp31
 70
     0
102
RTVSPropertyOp32
 70
     0
  0
XRECORD
  5
987E
102
{ACAD_REACTORS
330
987D
102
}
330
987D
100
AcDbXrecord
280
     1
102
RTVSPropertyOp0
 70
     1
102
RTVSPropertyOp1
 70
     1
102
RTVSPropertyOp2
 70
     1
102
RTVSPropertyOp3
 70
     1
102
RTVSPropertyOp4
 70
     1
102
RTVSPropertyOp5
 70
     1
102
RTVSPropertyOp6
 70
     1
102
RTVSPropertyOp7
 70
     1
102
RTVSPropertyOp8
 70
     1
102
RTVSPropertyOp9
 70
     1
102
RTVSPropertyOp10
 70
     1
102
RTVSPropertyOp11
 70
     1
102
RTVSPropertyOp12
 70
     1
102
RTVSPropertyOp13
 70
     1
102
RTVSPropertyOp14
 70
     1
102
RTVSPropertyOp15
 70
     1
102
RTVSPropertyOp16
 70
     1
102
RTVSPropertyOp17
 70
     1
102
RTVSPropertyOp18
 70
     1
102
RTVSPropertyOp19
 70
     1
102
RTVSPropertyOp20
 70
     1
102
RTVSPropertyOp21
 70
     1
102
RTVSPropertyOp22
 70
     1
102
RTVSPropertyOp23
 70
     1
102
RTVSPropertyOp24
 70
     1
102
RTVSPropertyOp25
 70
     1
102
RTVSPropertyOp26
 70
     1
102
RTVSPropertyOp27
 70
     1
102
RTVSPropertyOp28
 70
     1
102
RTVSPropertyOp29
 70
     1
102
RTVSPropertyOp30
 70
     1
102
RTVSPropertyOp31
 70
     1
102
RTVSPropertyOp32
 70
     1
  0
XRECORD
  5
9894
102
{ACAD_REACTORS
330
9893
102
}
330
9893
100
AcDbXrecord
280
     1
102
RTVSPropertyOp0
 70
     1
102
RTVSPropertyOp1
 70
     1
102
RTVSPropertyOp2
 70
     1
102
RTVSPropertyOp3
 70
     1
102
RTVSPropertyOp4
 70
     1
102
RTVSPropertyOp5
 70
     1
102
RTVSPropertyOp6
 70
     1
102
RTVSPropertyOp7
 70
     1
102
RTVSPropertyOp8
 70
     1
102
RTVSPropertyOp9
 70
     1
102
RTVSPropertyOp10
 70
     1
102
RTVSPropertyOp11
 70
     1
102
RTVSPropertyOp12
 70
     1
102
RTVSPropertyOp13
 70
     1
102
RTVSPropertyOp14
 70
     1
102
RTVSPropertyOp15
 70
     1
102
RTVSPropertyOp16
 70
     1
102
RTVSPropertyOp17
 70
     1
102
RTVSPropertyOp18
 70
     1
102
RTVSPropertyOp19
 70
     1
102
RTVSPropertyOp20
 70
     1
102
RTVSPropertyOp21
 70
     1
102
RTVSPropertyOp22
 70
     1
102
RTVSPropertyOp23
 70
     1
102
RTVSPropertyOp24
 70
     1
102
RTVSPropertyOp25
 70
     1
102
RTVSPropertyOp26
 70
     1
102
RTVSPropertyOp27
 70
     1
102
RTVSPropertyOp28
 70
     1
102
RTVSPropertyOp29
 70
     1
102
RTVSPropertyOp30
 70
     1
102
RTVSPropertyOp31
 70
     1
102
RTVSPropertyOp32
 70
     1
  0
XRECORD
  5
9892
102
{ACAD_REACTORS
330
9891
102
}
330
9891
100
AcDbXrecord
280
     1
102
RTVSPropertyOp0
 70
     1
102
RTVSPropertyOp1
 70
     1
102
RTVSPropertyOp2
 70
     1
102
RTVSPropertyOp3
 70
     1
102
RTVSPropertyOp4
 70
     1
102
RTVSPropertyOp5
 70
     1
102
RTVSPropertyOp6
 70
     1
102
RTVSPropertyOp7
 70
     1
102
RTVSPropertyOp8
 70
     1
102
RTVSPropertyOp9
 70
     1
102
RTVSPropertyOp10
 70
     1
102
RTVSPropertyOp11
 70
     1
102
RTVSPropertyOp12
 70
     1
102
RTVSPropertyOp13
 70
     1
102
RTVSPropertyOp14
 70
     1
102
RTVSPropertyOp15
 70
     1
102
RTVSPropertyOp16
 70
     1
102
RTVSPropertyOp17
 70
     1
102
RTVSPropertyOp18
 70
     1
102
RTVSPropertyOp19
 70
     1
102
RTVSPropertyOp20
 70
     1
102
RTVSPropertyOp21
 70
     1
102
RTVSPropertyOp22
 70
     1
102
RTVSPropertyOp23
 70
     1
102
RTVSPropertyOp24
 70
     1
102
RTVSPropertyOp25
 70
     1
102
RTVSPropertyOp26
 70
     1
102
RTVSPropertyOp27
 70
     1
102
RTVSPropertyOp28
 70
     1
102
RTVSPropertyOp29
 70
     1
102
RTVSPropertyOp30
 70
     1
102
RTVSPropertyOp31
 70
     1
102
RTVSPropertyOp32
 70
     1
  0
XRECORD
  5
988C
102
{ACAD_REACTORS
330
988B
102
}
330
988B
100
AcDbXrecord
280
     1
102
RTVSPropertyOp0
 70
     1
102
RTVSPropertyOp1
 70
     1
102
RTVSPropertyOp2
 70
     1
102
RTVSPropertyOp3
 70
     1
102
RTVSPropertyOp4
 70
     1
102
RTVSPropertyOp5
 70
     1
102
RTVSPropertyOp6
 70
     1
102
RTVSPropertyOp7
 70
     1
102
RTVSPropertyOp8
 70
     1
102
RTVSPropertyOp9
 70
     1
102
RTVSPropertyOp10
 70
     1
102
RTVSPropertyOp11
 70
     1
102
RTVSPropertyOp12
 70
     1
102
RTVSPropertyOp13
 70
     1
102
RTVSPropertyOp14
 70
     1
102
RTVSPropertyOp15
 70
     1
102
RTVSPropertyOp16
 70
     1
102
RTVSPropertyOp17
 70
     1
102
RTVSPropertyOp18
 70
     1
102
RTVSPropertyOp19
 70
     1
102
RTVSPropertyOp20
 70
     1
102
RTVSPropertyOp21
 70
     1
102
RTVSPropertyOp22
 70
     1
102
RTVSPropertyOp23
 70
     1
102
RTVSPropertyOp24
 70
     1
102
RTVSPropertyOp25
 70
     1
102
RTVSPropertyOp26
 70
     1
102
RTVSPropertyOp27
 70
     1
102
RTVSPropertyOp28
 70
     1
102
RTVSPropertyOp29
 70
     1
102
RTVSPropertyOp30
 70
     1
102
RTVSPropertyOp31
 70
     1
102
RTVSPropertyOp32
 70
     1
  0
XRECORD
  5
988E
102
{ACAD_REACTORS
330
988D
102
}
330
988D
100
AcDbXrecord
280
     1
102
RTVSPropertyOp0
 70
     1
102
RTVSPropertyOp1
 70
     1
102
RTVSPropertyOp2
 70
     1
102
RTVSPropertyOp3
 70
     1
102
RTVSPropertyOp4
 70
     1
102
RTVSPropertyOp5
 70
     1
102
RTVSPropertyOp6
 70
     1
102
RTVSPropertyOp7
 70
     1
102
RTVSPropertyOp8
 70
     1
102
RTVSPropertyOp9
 70
     1
102
RTVSPropertyOp10
 70
     1
102
RTVSPropertyOp11
 70
     1
102
RTVSPropertyOp12
 70
     1
102
RTVSPropertyOp13
 70
     1
102
RTVSPropertyOp14
 70
     1
102
RTVSPropertyOp15
 70
     1
102
RTVSPropertyOp16
 70
     1
102
RTVSPropertyOp17
 70
     1
102
RTVSPropertyOp18
 70
     1
102
RTVSPropertyOp19
 70
     1
102
RTVSPropertyOp20
 70
     1
102
RTVSPropertyOp21
 70
     1
102
RTVSPropertyOp22
 70
     1
102
RTVSPropertyOp23
 70
     1
102
RTVSPropertyOp24
 70
     1
102
RTVSPropertyOp25
 70
     1
102
RTVSPropertyOp26
 70
     1
102
RTVSPropertyOp27
 70
     1
102
RTVSPropertyOp28
 70
     1
102
RTVSPropertyOp29
 70
     1
102
RTVSPropertyOp30
 70
     1
102
RTVSPropertyOp31
 70
     1
102
RTVSPropertyOp32
 70
     1
  0
XRECORD
  5
9884
102
{ACAD_REACTORS
330
9883
102
}
330
9883
100
AcDbXrecord
280
     1
102
RTVSPropertyOp0
 70
     1
102
RTVSPropertyOp1
 70
     1
102
RTVSPropertyOp2
 70
     1
102
RTVSPropertyOp3
 70
     1
102
RTVSPropertyOp4
 70
     1
102
RTVSPropertyOp5
 70
     1
102
RTVSPropertyOp6
 70
     1
102
RTVSPropertyOp7
 70
     1
102
RTVSPropertyOp8
 70
     1
102
RTVSPropertyOp9
 70
     1
102
RTVSPropertyOp10
 70
     1
102
RTVSPropertyOp11
 70
     1
102
RTVSPropertyOp12
 70
     1
102
RTVSPropertyOp13
 70
     1
102
RTVSPropertyOp14
 70
     1
102
RTVSPropertyOp15
 70
     1
102
RTVSPropertyOp16
 70
     1
102
RTVSPropertyOp17
 70
     1
102
RTVSPropertyOp18
 70
     1
102
RTVSPropertyOp19
 70
     1
102
RTVSPropertyOp20
 70
     1
102
RTVSPropertyOp21
 70
     1
102
RTVSPropertyOp22
 70
     1
102
RTVSPropertyOp23
 70
     1
102
RTVSPropertyOp24
 70
     1
102
RTVSPropertyOp25
 70
     1
102
RTVSPropertyOp26
 70
     1
102
RTVSPropertyOp27
 70
     1
102
RTVSPropertyOp28
 70
     1
102
RTVSPropertyOp29
 70
     1
102
RTVSPropertyOp30
 70
     1
102
RTVSPropertyOp31
 70
     1
102
RTVSPropertyOp32
 70
     1
  0
XRECORD
  5
9878
102
{ACAD_REACTORS
330
9877
102
}
330
9877
100
AcDbXrecord
280
     1
102
RTVSPropertyOp0
 70
     1
102
RTVSPropertyOp1
 70
     1
102
RTVSPropertyOp2
 70
     1
102
RTVSPropertyOp3
 70
     1
102
RTVSPropertyOp4
 70
     1
102
RTVSPropertyOp5
 70
     1
102
RTVSPropertyOp6
 70
     1
102
RTVSPropertyOp7
 70
     1
102
RTVSPropertyOp8
 70
     1
102
RTVSPropertyOp9
 70
     1
102
RTVSPropertyOp10
 70
     1
102
RTVSPropertyOp11
 70
     1
102
RTVSPropertyOp12
 70
     1
102
RTVSPropertyOp13
 70
     1
102
RTVSPropertyOp14
 70
     1
102
RTVSPropertyOp15
 70
     1
102
RTVSPropertyOp16
 70
     1
102
RTVSPropertyOp17
 70
     1
102
RTVSPropertyOp18
 70
     1
102
RTVSPropertyOp19
 70
     1
102
RTVSPropertyOp20
 70
     1
102
RTVSPropertyOp21
 70
     1
102
RTVSPropertyOp22
 70
     1
102
RTVSPropertyOp23
 70
     1
102
RTVSPropertyOp24
 70
     1
102
RTVSPropertyOp25
 70
     1
102
RTVSPropertyOp26
 70
     1
102
RTVSPropertyOp27
 70
     1
102
RTVSPropertyOp28
 70
     1
102
RTVSPropertyOp29
 70
     1
102
RTVSPropertyOp30
 70
     1
102
RTVSPropertyOp31
 70
     1
102
RTVSPropertyOp32
 70
     1
  0
XRECORD
  5
9890
102
{ACAD_REACTORS
330
988F
102
}
330
988F
100
AcDbXrecord
280
     1
102
RTVSPropertyOp0
 70
     1
102
RTVSPropertyOp1
 70
     1
102
RTVSPropertyOp2
 70
     1
102
RTVSPropertyOp3
 70
     1
102
RTVSPropertyOp4
 70
     1
102
RTVSPropertyOp5
 70
     1
102
RTVSPropertyOp6
 70
     1
102
RTVSPropertyOp7
 70
     1
102
RTVSPropertyOp8
 70
     1
102
RTVSPropertyOp9
 70
     1
102
RTVSPropertyOp10
 70
     1
102
RTVSPropertyOp11
 70
     1
102
RTVSPropertyOp12
 70
     1
102
RTVSPropertyOp13
 70
     1
102
RTVSPropertyOp14
 70
     1
102
RTVSPropertyOp15
 70
     1
102
RTVSPropertyOp16
 70
     1
102
RTVSPropertyOp17
 70
     1
102
RTVSPropertyOp18
 70
     1
102
RTVSPropertyOp19
 70
     1
102
RTVSPropertyOp20
 70
     1
102
RTVSPropertyOp21
 70
     1
102
RTVSPropertyOp22
 70
     1
102
RTVSPropertyOp23
 70
     1
102
RTVSPropertyOp24
 70
     1
102
RTVSPropertyOp25
 70
     1
102
RTVSPropertyOp26
 70
     1
102
RTVSPropertyOp27
 70
     1
102
RTVSPropertyOp28
 70
     1
102
RTVSPropertyOp29
 70
     1
102
RTVSPropertyOp30
 70
     1
102
RTVSPropertyOp31
 70
     1
102
RTVSPropertyOp32
 70
     1
  0
ENDSEC
  0
EOF
