  0
SECTION
  2
HEADER
  9
$ACADVER
  1
AC1015
  9
$ACADMAINTVER
 70
    20
  9
$DWGCODEPAGE
  3
ANSI_949
  9
$INSBASE
 10
0.0
 20
0.0
 30
0.0
  9
$EXTMIN
 10
75.65372934345657
 20
62.07349928656424
 30
-0.0015258207003583
  9
$EXTMAX
 10
444.9362350679092
 20
215.4111296337573
 30
0.0000000349246037
  9
$LIMMIN
 10
0.0
 20
0.0
  9
$LIMMAX
 10
420.0
 20
297.0
  9
$ORTHOMODE
 70
     1
  9
$REGENMODE
 70
     1
  9
$FILLMODE
 70
     1
  9
$QTEXTMODE
 70
     0
  9
$MIRRTEXT
 70
     1
  9
$LTSCALE
 40
10.0
  9
$ATTMODE
 70
     1
  9
$TEXTSIZE
 40
3.149999999999999
  9
$TRACEWID
 40
0.05
  9
$TEXTSTYLE
  7
H
  9
$CLAYER
  8
0
  9
$CELTYPE
  6
BYLAYER
  9
$CECOLOR
 62
   256
  9
$CELTSCALE
 40
1.0
  9
$DISPSILH
 70
     0
  9
$DIMSCALE
 40
1.5
  9
$DIMASZ
 40
2.5
  9
$DIMEXO
 40
0.8
  9
$DIMDLI
 40
0.8
  9
$DIMRND
 40
0.0
  9
$DIMDLE
 40
0.0
  9
$DIMEXE
 40
0.8
  9
$DIMTP
 40
0.0
  9
$DIMTM
 40
0.0
  9
$DIMTXT
 40
3.0
  9
$DIMCEN
 40
-1.0
  9
$DIMTSZ
 40
0.0
  9
$DIMTOL
 70
     0
  9
$DIMLIM
 70
     0
  9
$DIMTIH
 70
     0
  9
$DIMTOH
 70
     0
  9
$DIMSE1
 70
     0
  9
$DIMSE2
 70
     0
  9
$DIMTAD
 70
     3
  9
$DIMZIN
 70
     8
  9
$DIMBLK
  1

  9
$DIMASO
 70
     1
  9
$DIMSHO
 70
     1
  9
$DIMPOST
  1

  9
$DIMAPOST
  1

  9
$DIMALT
 70
     0
  9
$DIMALTD
 70
     2
  9
$DIMALTF
 40
25.4
  9
$DIMLFAC
 40
1.0
  9
$DIMTOFL
 70
     1
  9
$DIMTVP
 40
0.0
  9
$DIMTIX
 70
     0
  9
$DIMSOXD
 70
     0
  9
$DIMSAH
 70
     0
  9
$DIMBLK1
  1

  9
$DIMBLK2
  1

  9
$DIMSTYLE
  2
STANDARD
  9
$DIMCLRD
 70
   115
  9
$DIMCLRE
 70
   115
  9
$DIMCLRT
 70
     7
  9
$DIMTFAC
 40
1.0
  9
$DIMGAP
 40
1.0
  9
$DIMJUST
 70
     0
  9
$DIMSD1
 70
     0
  9
$DIMSD2
 70
     0
  9
$DIMTOLJ
 70
     1
  9
$DIMTZIN
 70
     0
  9
$DIMALTZ
 70
     0
  9
$DIMALTTZ
 70
     0
  9
$DIMUPT
 70
     0
  9
$DIMDEC
 70
     3
  9
$DIMTDEC
 70
     4
  9
$DIMALTU
 70
     2
  9
$DIMALTTD
 70
     2
  9
$DIMTXSTY
  7
STANDARD
  9
$DIMAUNIT
 70
     0
  9
$DIMADEC
 70
     0
  9
$DIMALTRND
 40
0.0
  9
$DIMAZIN
 70
     0
  9
$DIMDSEP
 70
    46
  9
$DIMATFIT
 70
     3
  9
$DIMFRAC
 70
     0
  9
$DIMLDRBLK
  1

  9
$DIMLUNIT
 70
     2
  9
$DIMLWD
 70
    -2
  9
$DIMLWE
 70
    -2
  9
$DIMTMOVE
 70
     0
  9
$LUNITS
 70
     2
  9
$LUPREC
 70
     4
  9
$SKETCHINC
 40
0.1
  9
$FILLETRAD
 40
0.5
  9
$AUNITS
 70
     0
  9
$AUPREC
 70
     0
  9
$MENU
  1
.
  9
$ELEVATION
 40
0.0
  9
$PELEVATION
 40
0.0
  9
$THICKNESS
 40
0.0
  9
$LIMCHECK
 70
     0
  9
$CHAMFERA
 40
0.5
  9
$CHAMFERB
 40
0.5
  9
$CHAMFERC
 40
1.0
  9
$CHAMFERD
 40
0.0
  9
$SKPOLY
 70
     1
  9
$TDCREATE
 40
2452464.575009942
  9
$TDUCREATE
 40
2452464.200009942
  9
$TDUPDATE
 40
2455666.412790856
  9
$TDUUPDATE
 40
2455666.037790857
  9
$TDINDWG
 40
0.5248138079
  9
$TDUSRTIMER
 40
0.5248121644
  9
$USRTIMER
 70
     1
  9
$ANGBASE
 50
0.0
  9
$ANGDIR
 70
     0
  9
$PDMODE
 70
     0
  9
$PDSIZE
 40
0.0
  9
$PLINEWID
 40
0.5
  9
$SPLFRAME
 70
     0
  9
$SPLINETYPE
 70
     6
  9
$SPLINESEGS
 70
     8
  9
$HANDSEED
  5
4834
  9
$SURFTAB1
 70
     6
  9
$SURFTAB2
 70
     6
  9
$SURFTYPE
 70
     6
  9
$SURFU
 70
     6
  9
$SURFV
 70
     6
  9
$UCSBASE
  2

  9
$UCSNAME
  2

  9
$UCSORG
 10
0.0
 20
0.0
 30
0.0
  9
$UCSXDIR
 10
1.0
 20
0.0
 30
0.0
  9
$UCSYDIR
 10
0.0
 20
1.0
 30
0.0
  9
$UCSORTHOREF
  2

  9
$UCSORTHOVIEW
 70
     0
  9
$UCSORGTOP
 10
0.0
 20
0.0
 30
0.0
  9
$UCSORGBOTTOM
 10
0.0
 20
0.0
 30
0.0
  9
$UCSORGLEFT
 10
0.0
 20
0.0
 30
0.0
  9
$UCSORGRIGHT
 10
0.0
 20
0.0
 30
0.0
  9
$UCSORGFRONT
 10
0.0
 20
0.0
 30
0.0
  9
$UCSORGBACK
 10
0.0
 20
0.0
 30
0.0
  9
$PUCSBASE
  2

  9
$PUCSNAME
  2

  9
$PUCSORG
 10
0.0
 20
0.0
 30
0.0
  9
$PUCSXDIR
 10
1.0
 20
0.0
 30
0.0
  9
$PUCSYDIR
 10
0.0
 20
1.0
 30
0.0
  9
$PUCSORTHOREF
  2

  9
$PUCSORTHOVIEW
 70
     0
  9
$PUCSORGTOP
 10
0.0
 20
0.0
 30
0.0
  9
$PUCSORGBOTTOM
 10
0.0
 20
0.0
 30
0.0
  9
$PUCSORGLEFT
 10
0.0
 20
0.0
 30
0.0
  9
$PUCSORGRIGHT
 10
0.0
 20
0.0
 30
0.0
  9
$PUCSORGFRONT
 10
0.0
 20
0.0
 30
0.0
  9
$PUCSORGBACK
 10
0.0
 20
0.0
 30
0.0
  9
$USERI1
 70
     0
  9
$USERI2
 70
   452
  9
$USERI3
 70
     1
  9
$USERI4
 70
     0
  9
$USERI5
 70
     0
  9
$USERR1
 40
0.0
  9
$USERR2
 40
0.0
  9
$USERR3
 40
0.0
  9
$USERR4
 40
0.0
  9
$USERR5
 40
0.0
  9
$WORLDVIEW
 70
     1
  9
$SHADEDGE
 70
     3
  9
$SHADEDIF
 70
    70
  9
$TILEMODE
 70
     1
  9
$MAXACTVP
 70
    48
  9
$PINSBASE
 10
0.0
 20
0.0
 30
0.0
  9
$PLIMCHECK
 70
     0
  9
$PEXTMIN
 10
1.000000000000000E+20
 20
1.000000000000000E+20
 30
1.000000000000000E+20
  9
$PEXTMAX
 10
-1.000000000000000E+20
 20
-1.000000000000000E+20
 30
-1.000000000000000E+20
  9
$PLIMMIN
 10
0.0
 20
0.0
  9
$PLIMMAX
 10
12.0
 20
9.0
  9
$UNITMODE
 70
     0
  9
$VISRETAIN
 70
     1
  9
$PLINEGEN
 70
     0
  9
$PSLTSCALE
 70
     1
  9
$TREEDEPTH
 70
  3020
  9
$CMLSTYLE
  2
STANDARD
  9
$CMLJUST
 70
     0
  9
$CMLSCALE
 40
1.0
  9
$PROXYGRAPHICS
 70
     1
  9
$MEASUREMENT
 70
     0
  9
$CELWEIGHT
370
    -1
  9
$ENDCAPS
280
     0
  9
$JOINSTYLE
280
     0
  9
$LWDISPLAY
290
     0
  9
$INSUNITS
 70
     0
  9
$HYPERLINKBASE
  1

  9
$STYLESHEET
  1
1.CTB
  9
$XEDIT
290
     1
  9
$CEPSNTYPE
380
     0
  9
$PSTYLEMODE
290
     1
  9
$FINGERPRINTGUID
  2
{3172CC46-24FC-4775-9257-50F4EA4939B8}
  9
$VERSIONGUID
  2
{F18822C3-FB39-4F56-86C5-C487CC492EE1}
  9
$EXTNAMES
290
     1
  9
$PSVPSCALE
 40
0.0
  9
$OLESTARTUP
290
     0
  0
ENDSEC
  0
SECTION
  2
CLASSES
  0
CLASS
  1
DICTIONARYVAR
  2
AcDbDictionaryVar
  3
ObjectDBX Classes
 90
        0
280
     0
281
     0
  0
CLASS
  1
ACDBDICTIONARYWDFLT
  2
AcDbDictionaryWithDefault
  3
ObjectDBX Classes
 90
        0
280
     0
281
     0
  0
CLASS
  1
ACDBPLACEHOLDER
  2
AcDbPlaceHolder
  3
ObjectDBX Classes
 90
        0
280
     0
281
     0
  0
CLASS
  1
LAYOUT
  2
AcDbLayout
  3
ObjectDBX Classes
 90
        0
280
     0
281
     0
  0
CLASS
  1
TABLESTYLE
  2
AcDbTableStyle
  3
ObjectDBX Classes
 90
     4095
280
     0
281
     0
  0
CLASS
  1
MATERIAL
  2
AcDbMaterial
  3
ObjectDBX Classes
 90
     1153
280
     0
281
     0
  0
CLASS
  1
VISUALSTYLE
  2
AcDbVisualStyle
  3
ObjectDBX Classes
 90
     4095
280
     0
281
     0
  0
CLASS
  1
SCALE
  2
AcDbScale
  3
ObjectDBX Classes
 90
     1153
280
     0
281
     0
  0
CLASS
  1
MLEADERSTYLE
  2
AcDbMLeaderStyle
  3
ACDB_MLEADERSTYLE_CLASS
 90
     4095
280
     0
281
     0
  0
CLASS
  1
CELLSTYLEMAP
  2
AcDbCellStyleMap
  3
ObjectDBX Classes
 90
     1152
280
     0
281
     0
  0
CLASS
  1
SORTENTSTABLE
  2
AcDbSortentsTable
  3
ObjectDBX Classes
 90
    32768
280
     0
281
     0
  0
ENDSEC
  0
SECTION
  2
TABLES
  0
TABLE
  2
VPORT
  5
8
330
0
100
AcDbSymbolTable
 70
     1
  0
VPORT
  5
4534
330
8
100
AcDbSymbolTableRecord
100
AcDbViewportTableRecord
  2
*Active
 70
     0
 10
0.0
 20
0.0
 11
1.0
 21
1.0
 12
269.2743965008422
 22
125.4076727555794
 13
0.0
 23
0.0
 14
0.5
 24
0.5
 15
0.5
 25
0.5
 16
0.0
 26
0.0
 36
1.0
 17
0.0
 27
0.0
 37
0.0
 40
213.7885298669207
 41
2.336349924585218
 42
50.0
 43
0.0
 44
0.0
 50
0.0
 51
0.0
 71
     0
 72
   100
 73
     1
 74
     1
 75
     0
 76
     0
 77
     0
 78
     0
281
     0
 65
     1
110
0.0
120
0.0
130
0.0
111
1.0
121
0.0
131
0.0
112
0.0
122
1.0
132
0.0
 79
     0
146
0.0
  0
ENDTAB
  0
TABLE
  2
LTYPE
  5
5
330
0
100
AcDbSymbolTable
 70
     5
  0
LTYPE
  5
13
330
5
100
AcDbSymbolTableRecord
100
AcDbLinetypeTableRecord
  2
BYBLOCK
 70
     0
  3

 72
    65
 73
     0
 40
0.0
  0
LTYPE
  5
14
330
5
100
AcDbSymbolTableRecord
100
AcDbLinetypeTableRecord
  2
BYLAYER
 70
     0
  3

 72
    65
 73
     0
 40
0.0
  0
LTYPE
  5
15
330
5
100
AcDbSymbolTableRecord
100
AcDbLinetypeTableRecord
  2
CONTINUOUS
 70
     0
  3
Solid line
 72
    65
 73
     0
 40
0.0
  0
LTYPE
  5
5D
330
5
100
AcDbSymbolTableRecord
100
AcDbLinetypeTableRecord
  2
CENTER
 70
     0
  3
Center ____ _ ____ _ ____ _ ____ _ ____ _ ____
 72
    65
 73
     4
 40
2.0
 49
1.25
 74
     0
 49
-0.25
 74
     0
 49
0.25
 74
     0
 49
-0.25
 74
     0
  0
LTYPE
  5
5E
330
5
100
AcDbSymbolTableRecord
100
AcDbLinetypeTableRecord
  2
HIDDEN
 70
     0
  3
Hidden __ __ __ __ __ __ __ __ __ __ __ __ __ _
 72
    65
 73
     2
 40
0.375
 49
0.25
 74
     0
 49
-0.125
 74
     0
  0
ENDTAB
  0
TABLE
  2
LAYER
  5
2
102
{ACAD_XDICTIONARY
360
45C0
102
}
330
0
100
AcDbSymbolTable
 70
     5
  0
LAYER
  5
F
102
{ACAD_XDICTIONARY
360
459A
102
}
330
2
100
AcDbSymbolTableRecord
100
AcDbLayerTableRecord
  2
0
 70
     0
 62
     7
  6
CONTINUOUS
370
    -3
390
4154
  0
LAYER
  5
55
102
{ACAD_XDICTIONARY
360
459C
102
}
330
2
100
AcDbSymbolTableRecord
100
AcDbLayerTableRecord
  2
9
 70
     0
 62
     3
  6
CONTINUOUS
370
    -3
390
4154
  0
LAYER
  5
61
102
{ACAD_XDICTIONARY
360
459E
102
}
330
2
100
AcDbSymbolTableRecord
100
AcDbLayerTableRecord
  2
1
 70
     0
 62
     1
  6
CENTER
370
    -3
390
4154
  0
LAYER
  5
62
102
{ACAD_XDICTIONARY
360
45A0
102
}
330
2
100
AcDbSymbolTableRecord
100
AcDbLayerTableRecord
  2
2
 70
     0
 62
     2
  6
HIDDEN
370
    -3
390
4154
  0
LAYER
  5
24EF
330
2
100
AcDbSymbolTableRecord
100
AcDbLayerTableRecord
  2
DEFPOINTS
 70
     0
 62
     7
  6
CONTINUOUS
290
     0
370
    -3
390
4154
  0
ENDTAB
  0
TABLE
  2
STYLE
  5
3
330
0
100
AcDbSymbolTable
 70
     4
  0
STYLE
  5
10
330
3
100
AcDbSymbolTableRecord
100
AcDbTextStyleTableRecord
  2
STANDARD
 70
     0
 40
0.0
 41
1.0
 50
0.0
 71
     0
 42
3.0
  3
romans.shx
  4

  0
STYLE
  5
167
330
3
100
AcDbSymbolTableRecord
100
AcDbTextStyleTableRecord
  2
STYLE1
 70
     0
 40
0.0
 41
1.0
 50
0.0
 71
     0
 42
3.149999999999999
  3
Gulim.ttf
  4

1001
ACAD
1000
Gulim
1071
    33074
  0
STYLE
  5
2AD7
330
3
100
AcDbSymbolTableRecord
100
AcDbTextStyleTableRecord
  2
T2
 70
     0
 40
0.0
 41
1.0
 50
0.1
 71
     0
 42
3.5
  3
monotxt
  4

  0
STYLE
  5
4531
330
3
100
AcDbSymbolTableRecord
100
AcDbTextStyleTableRecord
  2
H
 70
     0
 40
0.0
 41
1.0
 50
0.0
 71
     0
 42
3.149999999999999
  3
txt.shx
  4

  0
ENDTAB
  0
TABLE
  2
VIEW
  5
6
330
0
100
AcDbSymbolTable
 70
     0
  0
ENDTAB
  0
TABLE
  2
UCS
  5
7
330
0
100
AcDbSymbolTable
 70
     0
  0
ENDTAB
  0
TABLE
  2
APPID
  5
9
330
0
100
AcDbSymbolTable
 70
     8
  0
APPID
  5
11
330
9
100
AcDbSymbolTableRecord
100
AcDbRegAppTableRecord
  2
ACAD
 70
     0
  0
APPID
  5
2325
330
9
100
AcDbSymbolTableRecord
100
AcDbRegAppTableRecord
  2
MCLBOMATTRIB
 70
     0
  0
APPID
  5
2326
330
9
100
AcDbSymbolTableRecord
100
AcDbRegAppTableRecord
  2
MCLBOM
 70
     0
  0
APPID
  5
458D
330
9
100
AcDbSymbolTableRecord
100
AcDbRegAppTableRecord
  2
ACAD_MLEADERVER
 70
     0
  0
APPID
  5
45BF
330
9
100
AcDbSymbolTableRecord
100
AcDbRegAppTableRecord
  2
ACAD_PSEXT
 70
     0
  0
APPID
  5
467D
330
9
100
AcDbSymbolTableRecord
100
AcDbRegAppTableRecord
  2
ACAD_EXEMPT_FROM_CAD_STANDARDS
 70
     0
  0
APPID
  5
4685
330
9
100
AcDbSymbolTableRecord
100
AcDbRegAppTableRecord
  2
ACAD_DSTYLE_DIMRADIAL_EXTENSION
 70
     0
  0
APPID
  5
46DD
330
9
100
AcDbSymbolTableRecord
100
AcDbRegAppTableRecord
  2
DCO15
 70
     0
  0
ENDTAB
  0
TABLE
  2
DIMSTYLE
  5
A
330
0
100
AcDbSymbolTable
 70
     2
100
AcDbDimStyleTable
 71
     1
340
1D
  0
DIMSTYLE
105
1D
102
{ACAD_REACTORS
330
46F8
330
4705
330
4712
330
471F
330
4735
330
4742
330
4761
330
476D
330
477C
330
4789
102
}
330
A
100
AcDbSymbolTableRecord
100
AcDbDimStyleTableRecord
  2
STANDARD
 70
     0
 41
2.0
140
3.0
176
     2
177
     2
178
     4
340
10
  0
ENDTAB
  0
TABLE
  2
BLOCK_RECORD
  5
1
330
0
100
AcDbSymbolTable
 70
    12
  0
BLOCK_RECORD
  5
19
330
1
100
AcDbSymbolTableRecord
100
AcDbBlockTableRecord
  2
*MODEL_SPACE
340
4157
  0
BLOCK_RECORD
  5
16
330
1
100
AcDbSymbolTableRecord
100
AcDbBlockTableRecord
  2
*PAPER_SPACE
340
4158
  0
BLOCK_RECORD
  5
1B8B
330
1
100
AcDbSymbolTableRecord
100
AcDbBlockTableRecord
  2
MCLBOMATTRIB
340
0
102
{BLKREFS
331
247E
102
}
  0
BLOCK_RECORD
  5
46F9
330
1
100
AcDbSymbolTableRecord
100
AcDbBlockTableRecord
  2
*D1
340
0
  0
BLOCK_RECORD
  5
4706
330
1
100
AcDbSymbolTableRecord
100
AcDbBlockTableRecord
  2
*D2
340
0
  0
BLOCK_RECORD
  5
4713
330
1
100
AcDbSymbolTableRecord
100
AcDbBlockTableRecord
  2
*D3
340
0
  0
BLOCK_RECORD
  5
4720
330
1
100
AcDbSymbolTableRecord
100
AcDbBlockTableRecord
  2
*D4
340
0
  0
BLOCK_RECORD
  5
4736
330
1
100
AcDbSymbolTableRecord
100
AcDbBlockTableRecord
  2
*D5
340
0
  0
BLOCK_RECORD
  5
4743
330
1
100
AcDbSymbolTableRecord
100
AcDbBlockTableRecord
  2
*D6
340
0
  0
BLOCK_RECORD
  5
4762
330
1
100
AcDbSymbolTableRecord
100
AcDbBlockTableRecord
  2
*D7
340
0
  0
BLOCK_RECORD
  5
476E
330
1
100
AcDbSymbolTableRecord
100
AcDbBlockTableRecord
  2
*D8
340
0
  0
BLOCK_RECORD
  5
477D
330
1
100
AcDbSymbolTableRecord
100
AcDbBlockTableRecord
  2
*D9
340
0
  0
BLOCK_RECORD
  5
478A
330
1
100
AcDbSymbolTableRecord
100
AcDbBlockTableRecord
  2
*D10
340
0
  0
ENDTAB
  0
ENDSEC
  0
SECTION
  2
BLOCKS
  0
BLOCK
  5
1A
330
19
100
AcDbEntity
  8
0
100
AcDbBlockBegin
  2
*MODEL_SPACE
 70
     0
 10
0.0
 20
0.0
 30
0.0
  3
*MODEL_SPACE
  1

  0
ENDBLK
  5
1B
330
19
100
AcDbEntity
  8
0
100
AcDbBlockEnd
  0
BLOCK
  5
17
330
16
100
AcDbEntity
 67
     1
  8
0
100
AcDbBlockBegin
  2
*PAPER_SPACE
 70
     0
 10
0.0
 20
0.0
 30
0.0
  3
*PAPER_SPACE
  1

  0
ENDBLK
  5
18
330
16
100
AcDbEntity
 67
     1
  8
0
100
AcDbBlockEnd
  0
BLOCK
  5
1B8C
330
1B8B
100
AcDbEntity
  8
0
100
AcDbBlockBegin
  2
MCLBOMATTRIB
 70
     2
 10
0.0
 20
0.0
 30
0.0
  3
MCLBOMATTRIB
  1
MCLBOMATTRIB
  0
ENDBLK
  5
1B8D
330
1B8B
100
AcDbEntity
  8
0
100
AcDbBlockEnd
  0
BLOCK
  5
46FA
330
46F9
100
AcDbEntity
  8
0
100
AcDbBlockBegin
  2
*D1
 70
     1
 10
0.0
 20
0.0
 30
0.0
  3
*D1
  1

  0
LINE
  5
47A1
330
46F9
100
AcDbEntity
  8
0
 62
   115
370
    -2
100
AcDbLine
 10
333.9055083034855
 20
133.5443977127904
 30
0.0
 11
444.9319601324863
 21
133.5443977127904
 31
0.0
  0
LINE
  5
47A2
330
46F9
100
AcDbEntity
  8
0
 62
   115
370
    -2
100
AcDbLine
 10
333.9055083034855
 20
179.5443977127903
 30
0.0
 11
444.9319601324863
 21
179.5443977127903
 31
0.0
  0
LINE
  5
47A3
330
46F9
100
AcDbEntity
  8
0
 62
   115
370
    -2
100
AcDbLine
 10
443.7319601324863
 20
137.2943977127904
 30
0.0
 11
443.7319601324863
 21
175.7943977127903
 31
0.0
  0
SOLID
  5
47A4
330
46F9
100
AcDbEntity
  8
0
 62
   115
100
AcDbTrace
 10
443.1069601324863
 20
137.2943977127904
 30
0.0
 11
444.3569601324863
 21
137.2943977127904
 31
0.0
 12
443.7319601324863
 22
133.5443977127904
 32
0.0
 13
443.7319601324863
 23
133.5443977127904
 33
0.0
  0
SOLID
  5
47A5
330
46F9
100
AcDbEntity
  8
0
 62
   115
100
AcDbTrace
 10
443.1069601324863
 20
175.7943977127903
 30
0.0
 11
444.3569601324863
 21
175.7943977127903
 31
0.0
 12
443.7319601324863
 22
179.5443977127903
 32
0.0
 13
443.7319601324863
 23
179.5443977127903
 33
0.0
  0
MTEXT
  5
47A6
330
46F9
100
AcDbEntity
  8
0
 62
     7
100
AcDbMText
 10
439.9819601324863
 20
156.5443977127904
 30
0.0
 40
4.5
 41
0.0
 71
     5
 72
     1
  1
\A1;%%C46
 11
0.0000000000000001
 21
1.0
 31
0.0
 73
     1
 44
1.0
1001
ACAD
1000
MTEXTBEGIN
1070
    73
1070
     1
1070
    44
1040
1.0
1070
    74
1070
     0
1000
MTEXTEND
  0
POINT
  5
47A7
330
46F9
100
AcDbEntity
  8
DEFPOINTS
 62
     0
100
AcDbPoint
 10
332.7055083034855
 20
133.5443977127904
 30
0.0
  0
POINT
  5
47A8
330
46F9
100
AcDbEntity
  8
DEFPOINTS
 62
     0
100
AcDbPoint
 10
332.7055083034855
 20
179.5443977127903
 30
0.0
  0
POINT
  5
47A9
330
46F9
100
AcDbEntity
  8
DEFPOINTS
 62
     0
100
AcDbPoint
 10
443.7319601324863
 20
179.5443977127903
 30
0.0
  0
ENDBLK
  5
46FB
330
46F9
100
AcDbEntity
  8
0
100
AcDbBlockEnd
  0
BLOCK
  5
4707
330
4706
100
AcDbEntity
  8
0
100
AcDbBlockBegin
  2
*D2
 70
     1
 10
0.0
 20
0.0
 30
0.0
  3
*D2
  1

  0
LINE
  5
47AA
330
4706
100
AcDbEntity
  8
0
 62
   115
370
    -2
100
AcDbLine
 10
406.6203224847071
 20
146.5443977127904
 30
0.0
 11
427.2368164679513
 21
146.5443977127904
 31
0.0
  0
LINE
  5
47AB
330
4706
100
AcDbEntity
  8
0
 62
   115
370
    -2
100
AcDbLine
 10
406.6203224847071
 20
166.5443977127903
 30
0.0
 11
427.2368164679513
 21
166.5443977127903
 31
0.0
  0
LINE
  5
47AC
330
4706
100
AcDbEntity
  8
0
 62
   115
370
    -2
100
AcDbLine
 10
426.0368164679514
 20
150.2943977127904
 30
0.0
 11
426.0368164679514
 21
162.7943977127903
 31
0.0
  0
SOLID
  5
47AD
330
4706
100
AcDbEntity
  8
0
 62
   115
100
AcDbTrace
 10
425.4118164679513
 20
150.2943977127904
 30
0.0
 11
426.6618164679513
 21
150.2943977127904
 31
0.0
 12
426.0368164679514
 22
146.5443977127904
 32
0.0
 13
426.0368164679514
 23
146.5443977127904
 33
0.0
  0
SOLID
  5
47AE
330
4706
100
AcDbEntity
  8
0
 62
   115
100
AcDbTrace
 10
425.4118164679513
 20
162.7943977127903
 30
0.0
 11
426.6618164679513
 21
162.7943977127903
 31
0.0
 12
426.0368164679514
 22
166.5443977127903
 32
0.0
 13
426.0368164679514
 23
166.5443977127903
 33
0.0
  0
MTEXT
  5
47AF
330
4706
100
AcDbEntity
  8
0
 62
     7
100
AcDbMText
 10
422.2868164679512
 20
156.5443977127904
 30
0.0
 40
4.5
 41
0.0
 71
     5
 72
     1
  1
\A1;%%C20
 11
0.0000000000000001
 21
1.0
 31
0.0
 73
     1
 44
1.0
1001
ACAD
1000
MTEXTBEGIN
1070
    73
1070
     1
1070
    44
1040
1.0
1070
    74
1070
     0
1000
MTEXTEND
  0
POINT
  5
47B0
330
4706
100
AcDbEntity
  8
DEFPOINTS
 62
     0
100
AcDbPoint
 10
405.420322484707
 20
146.5443977127904
 30
0.0
  0
POINT
  5
47B1
330
4706
100
AcDbEntity
  8
DEFPOINTS
 62
     0
100
AcDbPoint
 10
405.420322484707
 20
166.5443977127903
 30
0.0
  0
POINT
  5
47B2
330
4706
100
AcDbEntity
  8
DEFPOINTS
 62
     0
100
AcDbPoint
 10
426.0368164679514
 20
166.5443977127903
 30
0.0
  0
ENDBLK
  5
4708
330
4706
100
AcDbEntity
  8
0
100
AcDbBlockEnd
  0
BLOCK
  5
4714
330
4713
100
AcDbEntity
  8
0
100
AcDbBlockBegin
  2
*D3
 70
     1
 10
0.0
 20
0.0
 30
0.0
  3
*D3
  1

  0
LINE
  5
47B3
330
4713
100
AcDbEntity
  8
0
 62
   115
370
    -2
100
AcDbLine
 10
279.2055083034857
 20
122.8443977127904
 30
0.0
 11
279.2055083034857
 21
108.9147448637865
 31
0.0
  0
LINE
  5
47B4
330
4713
100
AcDbEntity
  8
0
 62
   115
370
    -2
100
AcDbLine
 10
292.2055083034857
 20
122.8443977127904
 30
0.0
 11
292.2055083034857
 21
108.9147448637865
 31
0.0
  0
LINE
  5
47B5
330
4713
100
AcDbEntity
  8
0
 62
   115
370
    -2
100
AcDbLine
 10
282.9555083034857
 20
110.1147448637865
 30
0.0
 11
288.4555083034856
 21
110.1147448637865
 31
0.0
  0
SOLID
  5
47B6
330
4713
100
AcDbEntity
  8
0
 62
   115
100
AcDbTrace
 10
282.9555083034857
 20
110.7397448637865
 30
0.0
 11
282.9555083034857
 21
109.4897448637865
 31
0.0
 12
279.2055083034857
 22
110.1147448637865
 32
0.0
 13
279.2055083034857
 23
110.1147448637865
 33
0.0
  0
SOLID
  5
47B7
330
4713
100
AcDbEntity
  8
0
 62
   115
100
AcDbTrace
 10
288.4555083034856
 20
110.7397448637865
 30
0.0
 11
288.4555083034856
 21
109.4897448637865
 31
0.0
 12
292.2055083034857
 22
110.1147448637865
 32
0.0
 13
292.2055083034857
 23
110.1147448637865
 33
0.0
  0
MTEXT
  5
47B8
330
4713
100
AcDbEntity
  8
0
 62
     7
100
AcDbMText
 10
285.7055083034857
 20
113.8647448637865
 30
0.0
 40
4.5
 41
0.0
 71
     5
 72
     1
  1
\A1;13
 73
     1
 44
1.0
1001
ACAD
1000
MTEXTBEGIN
1070
    73
1070
     1
1070
    44
1040
1.0
1070
    74
1070
     0
1000
MTEXTEND
  0
POINT
  5
47B9
330
4713
100
AcDbEntity
  8
DEFPOINTS
 62
     0
100
AcDbPoint
 10
279.2055083034857
 20
124.0443977127904
 30
0.0
  0
POINT
  5
47BA
330
4713
100
AcDbEntity
  8
DEFPOINTS
 62
     0
100
AcDbPoint
 10
292.2055083034857
 20
124.0443977127904
 30
0.0
  0
POINT
  5
47BB
330
4713
100
AcDbEntity
  8
DEFPOINTS
 62
     0
100
AcDbPoint
 10
292.2055083034857
 20
110.1147448637865
 30
0.0
  0
ENDBLK
  5
4715
330
4713
100
AcDbEntity
  8
0
100
AcDbBlockEnd
  0
BLOCK
  5
4721
330
4720
100
AcDbEntity
  8
0
100
AcDbBlockBegin
  2
*D4
 70
     1
 10
0.0
 20
0.0
 30
0.0
  3
*D4
  1

  0
LINE
  5
47BC
330
4720
100
AcDbEntity
  8
0
 62
   115
370
    -2
100
AcDbLine
 10
292.2055083034857
 20
122.8443977127904
 30
0.0
 11
292.2055083034857
 21
108.9147448637865
 31
0.0
  0
LINE
  5
47BD
330
4720
100
AcDbEntity
  8
0
 62
   115
370
    -2
100
AcDbLine
 10
333.2055083034855
 20
132.8443977127904
 30
0.0
 11
333.2055083034855
 21
108.9147448637865
 31
0.0
  0
LINE
  5
47BE
330
4720
100
AcDbEntity
  8
0
 62
   115
370
    -2
100
AcDbLine
 10
295.9555083034857
 20
110.1147448637865
 30
0.0
 11
329.4555083034855
 21
110.1147448637865
 31
0.0
  0
SOLID
  5
47BF
330
4720
100
AcDbEntity
  8
0
 62
   115
100
AcDbTrace
 10
295.9555083034857
 20
110.7397448637865
 30
0.0
 11
295.9555083034857
 21
109.4897448637865
 31
0.0
 12
292.2055083034857
 22
110.1147448637865
 32
0.0
 13
292.2055083034857
 23
110.1147448637865
 33
0.0
  0
SOLID
  5
47C0
330
4720
100
AcDbEntity
  8
0
 62
   115
100
AcDbTrace
 10
329.4555083034855
 20
110.7397448637865
 30
0.0
 11
329.4555083034855
 21
109.4897448637865
 31
0.0
 12
333.2055083034855
 22
110.1147448637865
 32
0.0
 13
333.2055083034855
 23
110.1147448637865
 33
0.0
  0
MTEXT
  5
47C1
330
4720
100
AcDbEntity
  8
0
 62
     7
100
AcDbMText
 10
312.7055083034855
 20
113.8647448637865
 30
0.0
 40
4.5
 41
0.0
 71
     5
 72
     1
  1
\A1;41
 73
     1
 44
1.0
1001
ACAD
1000
MTEXTBEGIN
1070
    73
1070
     1
1070
    44
1040
1.0
1070
    74
1070
     0
1000
MTEXTEND
  0
POINT
  5
47C2
330
4720
100
AcDbEntity
  8
DEFPOINTS
 62
     0
100
AcDbPoint
 10
292.2055083034857
 20
124.0443977127904
 30
0.0
  0
POINT
  5
47C3
330
4720
100
AcDbEntity
  8
DEFPOINTS
 62
     0
100
AcDbPoint
 10
333.2055083034855
 20
134.0443977127904
 30
0.0
  0
POINT
  5
47C4
330
4720
100
AcDbEntity
  8
DEFPOINTS
 62
     0
100
AcDbPoint
 10
333.2055083034855
 20
110.1147448637865
 30
0.0
  0
ENDBLK
  5
4722
330
4720
100
AcDbEntity
  8
0
100
AcDbBlockEnd
  0
BLOCK
  5
4737
330
4736
100
AcDbEntity
  8
0
100
AcDbBlockBegin
  2
*D5
 70
     1
 10
0.0
 20
0.0
 30
0.0
  3
*D5
  1

  0
LINE
  5
47C5
330
4736
100
AcDbEntity
  8
0
 62
   115
370
    -2
100
AcDbLine
 10
279.2055083034855
 20
122.8443977127904
 30
0.0
 11
279.2055083034855
 21
99.65714368628205
 31
0.0
  0
LINE
  5
47C6
330
4736
100
AcDbEntity
  8
0
 62
   115
370
    -2
100
AcDbLine
 10
333.2055083034855
 20
132.8443977127904
 30
0.0
 11
333.2055083034855
 21
99.65714368628205
 31
0.0
  0
LINE
  5
47C7
330
4736
100
AcDbEntity
  8
0
 62
   115
370
    -2
100
AcDbLine
 10
282.9555083034857
 20
100.857143686282
 30
0.0
 11
329.4555083034855
 21
100.857143686282
 31
0.0
  0
SOLID
  5
47C8
330
4736
100
AcDbEntity
  8
0
 62
   115
100
AcDbTrace
 10
282.9555083034857
 20
101.482143686282
 30
0.0
 11
282.9555083034857
 21
100.232143686282
 31
0.0
 12
279.2055083034855
 22
100.857143686282
 32
0.0
 13
279.2055083034855
 23
100.857143686282
 33
0.0
  0
SOLID
  5
47C9
330
4736
100
AcDbEntity
  8
0
 62
   115
100
AcDbTrace
 10
329.4555083034855
 20
101.482143686282
 30
0.0
 11
329.4555083034855
 21
100.232143686282
 31
0.0
 12
333.2055083034855
 22
100.857143686282
 32
0.0
 13
333.2055083034855
 23
100.857143686282
 33
0.0
  0
MTEXT
  5
47CA
330
4736
100
AcDbEntity
  8
0
 62
     7
100
AcDbMText
 10
306.2055083034855
 20
104.607143686282
 30
0.0
 40
4.5
 41
0.0
 71
     5
 72
     1
  1
\A1;54
 73
     1
 44
1.0
1001
ACAD
1000
MTEXTBEGIN
1070
    73
1070
     1
1070
    44
1040
1.0
1070
    74
1070
     0
1000
MTEXTEND
  0
POINT
  5
47CB
330
4736
100
AcDbEntity
  8
DEFPOINTS
 62
     0
100
AcDbPoint
 10
279.2055083034855
 20
124.0443977127904
 30
0.0
  0
POINT
  5
47CC
330
4736
100
AcDbEntity
  8
DEFPOINTS
 62
     0
100
AcDbPoint
 10
333.2055083034855
 20
134.0443977127904
 30
0.0
  0
POINT
  5
47CD
330
4736
100
AcDbEntity
  8
DEFPOINTS
 62
     0
100
AcDbPoint
 10
333.2055083034855
 20
100.857143686282
 30
0.0
  0
ENDBLK
  5
4738
330
4736
100
AcDbEntity
  8
0
100
AcDbBlockEnd
  0
BLOCK
  5
4744
330
4743
100
AcDbEntity
  8
0
100
AcDbBlockBegin
  2
*D6
 70
     1
 10
0.0
 20
0.0
 30
0.0
  3
*D6
  1

  0
LINE
  5
47CE
330
4743
100
AcDbEntity
  8
0
 62
   115
370
    -2
100
AcDbLine
 10
278.5055083034857
 20
123.5443977127904
 30
0.0
 11
263.4342448790448
 21
123.5443977127904
 31
0.0
  0
LINE
  5
47CF
330
4743
100
AcDbEntity
  8
0
 62
   115
370
    -2
100
AcDbLine
 10
278.5055083034857
 20
189.5443977127903
 30
0.0
 11
263.4342448790449
 21
189.5443977127903
 31
0.0
  0
LINE
  5
47D0
330
4743
100
AcDbEntity
  8
0
 62
   115
370
    -2
100
AcDbLine
 10
264.6342448790448
 20
127.2943977127904
 30
0.0
 11
264.6342448790449
 21
185.7943977127903
 31
0.0
  0
SOLID
  5
47D1
330
4743
100
AcDbEntity
  8
0
 62
   115
100
AcDbTrace
 10
264.0092448790448
 20
127.2943977127904
 30
0.0
 11
265.2592448790449
 21
127.2943977127904
 31
0.0
 12
264.6342448790448
 22
123.5443977127904
 32
0.0
 13
264.6342448790448
 23
123.5443977127904
 33
0.0
  0
SOLID
  5
47D2
330
4743
100
AcDbEntity
  8
0
 62
   115
100
AcDbTrace
 10
264.0092448790449
 20
185.7943977127903
 30
0.0
 11
265.2592448790449
 21
185.7943977127903
 31
0.0
 12
264.6342448790449
 22
189.5443977127903
 32
0.0
 13
264.6342448790449
 23
189.5443977127903
 33
0.0
  0
MTEXT
  5
47D3
330
4743
100
AcDbEntity
  8
0
 62
     7
100
AcDbMText
 10
260.8842448790448
 20
156.5443977127904
 30
0.0
 40
4.5
 41
0.0
 71
     5
 72
     1
  1
\A1;66
 11
0.0000000000000001
 21
1.0
 31
0.0
 73
     1
 44
1.0
1001
ACAD
1000
MTEXTBEGIN
1070
    73
1070
     1
1070
    44
1040
1.0
1070
    74
1070
     0
1000
MTEXTEND
  0
POINT
  5
47D4
330
4743
100
AcDbEntity
  8
DEFPOINTS
 62
     0
100
AcDbPoint
 10
279.7055083034857
 20
123.5443977127904
 30
0.0
  0
POINT
  5
47D5
330
4743
100
AcDbEntity
  8
DEFPOINTS
 62
     0
100
AcDbPoint
 10
279.7055083034857
 20
189.5443977127903
 30
0.0
  0
POINT
  5
47D6
330
4743
100
AcDbEntity
  8
DEFPOINTS
 62
     0
100
AcDbPoint
 10
264.6342448790449
 20
189.5443977127903
 30
0.0
  0
ENDBLK
  5
4745
330
4743
100
AcDbEntity
  8
0
100
AcDbBlockEnd
  0
BLOCK
  5
4763
330
4762
100
AcDbEntity
  8
0
100
AcDbBlockBegin
  2
*D7
 70
     1
 10
0.0
 20
0.0
 30
0.0
  3
*D7
  1

  0
LINE
  5
47D7
330
4762
100
AcDbEntity
  8
0
 62
   115
370
    -2
100
AcDbLine
 10
186.7915174145807
 20
121.0538881005299
 30
0.0
 11
154.8105028523581
 21
139.7581243081102
 31
0.0
  0
LINE
  5
47D8
330
4762
100
AcDbEntity
  8
0
 62
   115
370
    -2
100
AcDbLine
 10
97.40724422766597
 20
173.3306711174707
 30
0.0
 11
94.17021836537129
 21
175.2238598473218
 31
0.0
  0
MTEXT
  5
47D9
102
{ACAD_XDICTIONARY
360
482E
102
}
330
4762
100
AcDbEntity
  8
0
 62
     7
100
AcDbMText
 10
174.9042246163775
 20
132.3504888413337
 30
0.0
 40
4.5
 41
0.0
 71
     5
 72
     1
  1
\A1;PCD \U+220559
 11
0.8632068966119121
 21
-0.5048503279603091
 31
0.0
 73
     1
 44
1.0
1001
ACAD
1000
MTEXTBEGIN
1070
    73
1070
     1
1070
    44
1040
1.0
1070
    74
1070
     0
1000
MTEXTEND
  0
LINE
  5
47DA
330
4762
100
AcDbEntity
  8
0
 62
   115
370
    -2
100
AcDbLine
 10
100.6442700899606
 20
171.4374823876195
 30
0.0
 11
151.5734769900634
 21
141.6513130379613
 31
0.0
  0
SOLID
  5
47DB
330
4762
100
AcDbEntity
  8
0
 62
   115
100
AcDbTrace
 10
97.72277568264115
 20
173.8701754278532
 30
0.0
 11
97.09171277269078
 21
172.7911668070883
 31
0.0
 12
100.6442700899606
 22
171.4374823876195
 32
0.0
 13
100.6442700899606
 23
171.4374823876195
 33
0.0
  0
SOLID
  5
47DC
330
4762
100
AcDbEntity
  8
0
 62
   115
100
AcDbTrace
 10
155.1260343073332
 20
140.2976286184926
 30
0.0
 11
154.4949713973829
 21
139.2186199977277
 31
0.0
 12
151.5734769900634
 22
141.6513130379613
 32
0.0
 13
151.5734769900634
 23
141.6513130379613
 33
0.0
  0
POINT
  5
47DD
330
4762
100
AcDbEntity
  8
DEFPOINTS
 62
     0
100
AcDbPoint
 10
151.5734769900634
 20
141.6513130379613
 30
0.0
  0
POINT
  5
47DE
330
4762
100
AcDbEntity
  8
DEFPOINTS
 62
     0
100
AcDbPoint
 10
100.6442700899606
 20
171.4374823876195
 30
0.0
  0
ENDBLK
  5
4764
330
4762
100
AcDbEntity
  8
0
100
AcDbBlockEnd
  0
BLOCK
  5
476F
330
476E
100
AcDbEntity
  8
0
100
AcDbBlockBegin
  2
*D8
 70
     1
 10
0.0
 20
0.0
 30
0.0
  3
*D8
  1

  0
LINE
  5
47DF
330
476E
100
AcDbEntity
  8
0
 62
   115
370
    -2
100
AcDbLine
 10
107.2588735400122
 20
123.8952399901169
 30
0.0
 11
102.4809160869487
 21
115.6195749250083
 31
0.0
  0
LINE
  5
47E0
330
476E
100
AcDbEntity
  8
0
 62
   115
370
    -2
100
AcDbLine
 10
144.9588735400119
 20
123.8952399901169
 30
0.0
 11
149.7368309930754
 21
115.6195749250083
 31
0.0
  0
ARC
  5
47E1
330
476E
100
AcDbEntity
  8
0
 62
   115
370
    -2
100
AcDbCircle
 10
126.1088735400121
 20
156.5443977127908
 30
0.0
 40
46.0559149061276
100
AcDbArc
 50
244.6664705236472
 51
295.3335294763527
  0
SOLID
  5
47E2
330
476E
100
AcDbEntity
  8
0
 62
   115
100
AcDbTrace
 10
106.1119475304971
 20
114.3640345303068
 30
0.0
 11
106.6923580078976
 21
115.4711134243896
 31
0.0
 12
103.0809160869487
 22
116.6588054095496
 32
0.0
 13
103.0809160869487
 23
116.6588054095496
 33
0.0
  0
SOLID
  5
47E3
330
476E
100
AcDbEntity
  8
0
 62
   115
100
AcDbTrace
 10
145.5253890721265
 20
115.4711134243896
 30
0.0
 11
146.105799549527
 21
114.3640345303068
 31
0.0
 12
149.1368309930754
 22
116.6588054095496
 32
0.0
 13
149.1368309930754
 23
116.6588054095496
 33
0.0
  0
MTEXT
  5
47E4
102
{ACAD_XDICTIONARY
360
4830
102
}
330
476E
100
AcDbEntity
  8
0
 62
     7
100
AcDbMText
 10
126.1088735400121
 20
114.2384828066632
 30
0.0
 40
4.5
 41
0.0
 71
     5
 72
     1
  1
\A1;60\U+00B0
 73
     1
 44
1.0
1001
ACAD
1000
MTEXTBEGIN
1070
    73
1070
     1
1070
    44
1040
1.0
1070
    74
1070
     0
1000
MTEXTEND
  0
POINT
  5
47E5
330
476E
100
AcDbEntity
  8
DEFPOINTS
 62
     0
100
AcDbPoint
 10
118.1113478457799
 20
111.1881756411658
 30
0.0
  0
POINT
  5
47E6
330
476E
100
AcDbEntity
  8
DEFPOINTS
 62
     0
100
AcDbPoint
 10
114.8588735400121
 20
137.0588261276405
 30
0.0
  0
POINT
  5
47E7
330
476E
100
AcDbEntity
  8
DEFPOINTS
 62
     0
100
AcDbPoint
 10
137.358873540012
 20
137.0588261276405
 30
0.0
  0
POINT
  5
47E8
330
476E
100
AcDbEntity
  8
DEFPOINTS
 62
     0
100
AcDbPoint
 10
144.3588735400119
 20
124.9344704746582
 30
0.0
  0
POINT
  5
47E9
330
476E
100
AcDbEntity
  8
DEFPOINTS
 62
     0
100
AcDbPoint
 10
107.8588735400122
 20
124.9344704746582
 30
0.0
  0
ENDBLK
  5
4770
330
476E
100
AcDbEntity
  8
0
100
AcDbBlockEnd
  0
BLOCK
  5
477E
330
477D
100
AcDbEntity
  8
0
100
AcDbBlockBegin
  2
*D9
 70
     1
 10
0.0
 20
0.0
 30
0.0
  3
*D9
  1

  0
LINE
  5
47EA
330
477D
100
AcDbEntity
  8
0
 62
   115
370
    -2
100
AcDbLine
 10
103.1088735400121
 20
126.3616442204114
 30
0.0
 11
103.1088735400121
 21
100.9821737761943
 31
0.0
  0
LINE
  5
47EB
330
477D
100
AcDbEntity
  8
0
 62
   115
370
    -2
100
AcDbLine
 10
149.108873540013
 20
126.3616442204123
 30
0.0
 11
149.108873540013
 21
100.9821737761943
 31
0.0
  0
LINE
  5
47EC
330
477D
100
AcDbEntity
  8
0
 62
   115
370
    -2
100
AcDbLine
 10
106.8588735400121
 20
102.1821737761943
 30
0.0
 11
145.358873540013
 21
102.1821737761943
 31
0.0
  0
SOLID
  5
47ED
330
477D
100
AcDbEntity
  8
0
 62
   115
100
AcDbTrace
 10
106.8588735400121
 20
102.8071737761943
 30
0.0
 11
106.8588735400121
 21
101.5571737761943
 31
0.0
 12
103.1088735400121
 22
102.1821737761943
 32
0.0
 13
103.1088735400121
 23
102.1821737761943
 33
0.0
  0
SOLID
  5
47EE
330
477D
100
AcDbEntity
  8
0
 62
   115
100
AcDbTrace
 10
145.358873540013
 20
102.8071737761943
 30
0.0
 11
145.358873540013
 21
101.5571737761943
 31
0.0
 12
149.108873540013
 22
102.1821737761943
 32
0.0
 13
149.108873540013
 23
102.1821737761943
 33
0.0
  0
MTEXT
  5
47EF
330
477D
100
AcDbEntity
  8
0
 62
     7
100
AcDbMText
 10
126.1088735400126
 20
105.9321737761943
 30
0.0
 40
4.5
 41
0.0
 71
     5
 72
     1
  1
\A1;46
 73
     1
 44
1.0
1001
ACAD
1000
MTEXTBEGIN
1070
    73
1070
     1
1070
    44
1040
1.0
1070
    74
1070
     0
1000
MTEXTEND
  0
POINT
  5
47F0
330
477D
100
AcDbEntity
  8
DEFPOINTS
 62
     0
100
AcDbPoint
 10
103.1088735400121
 20
127.5616442204114
 30
0.0
  0
POINT
  5
47F1
330
477D
100
AcDbEntity
  8
DEFPOINTS
 62
     0
100
AcDbPoint
 10
149.108873540013
 20
127.5616442204123
 30
0.0
  0
POINT
  5
47F2
330
477D
100
AcDbEntity
  8
DEFPOINTS
 62
     0
100
AcDbPoint
 10
149.108873540013
 20
102.1821737761943
 30
0.0
  0
ENDBLK
  5
477F
330
477D
100
AcDbEntity
  8
0
100
AcDbBlockEnd
  0
BLOCK
  5
478B
330
478A
100
AcDbEntity
  8
0
100
AcDbBlockBegin
  2
*D10
 70
     1
 10
0.0
 20
0.0
 30
0.0
  3
*D10
  1

  0
LINE
  5
47F3
330
478A
100
AcDbEntity
  8
0
 62
   115
370
    -2
100
AcDbLine
 10
76.69230698758204
 20
124.1802721469939
 30
0.0
 11
92.01921064017971
 21
134.2182385407385
 31
0.0
  0
LINE
  5
47F4
330
478A
100
AcDbEntity
  8
0
 62
   115
370
    -2
100
AcDbLine
 10
160.1985364398444
 20
178.8705568848423
 30
0.0
 11
163.3356219827737
 21
180.9251114098778
 31
0.0
  0
MTEXT
  5
47F5
102
{ACAD_XDICTIONARY
360
4832
102
}
330
478A
100
AcDbEntity
  8
0
 62
     7
100
AcDbMText
 10
80.73266151738073
 20
131.3090636242778
 30
0.0
 40
4.5
 41
0.0
 71
     5
 72
     1
  1
\A1;\U+220574
 11
0.8365561447811609
 21
0.5478812066761203
 31
0.0
 73
     1
 44
1.0
1001
ACAD
1000
MTEXTBEGIN
1070
    73
1070
     1
1070
    44
1040
1.0
1070
    74
1070
     0
1000
MTEXTEND
  0
LINE
  5
47F6
330
478A
100
AcDbEntity
  8
0
 62
   115
370
    -2
100
AcDbLine
 10
157.061450896915
 20
176.8160023598069
 30
0.0
 11
95.15629618310908
 21
136.272793065774
 31
0.0
  0
SOLID
  5
47F7
330
478A
100
AcDbEntity
  8
0
 62
   115
100
AcDbTrace
 10
159.8561106856718
 20
179.3934044753306
 30
0.0
 11
160.540962194017
 21
178.3477092943541
 31
0.0
 12
157.061450896915
 22
176.8160023598069
 32
0.0
 13
157.061450896915
 23
176.8160023598069
 33
0.0
  0
SOLID
  5
47F8
330
478A
100
AcDbEntity
  8
0
 62
   115
100
AcDbTrace
 10
91.67678488600715
 20
134.7410861312267
 30
0.0
 11
92.36163639435231
 21
133.6953909502503
 31
0.0
 12
95.15629618310908
 22
136.272793065774
 32
0.0
 13
95.15629618310908
 23
136.272793065774
 33
0.0
  0
ARC
  5
47F9
330
478A
100
AcDbEntity
  8
0
 62
   115
370
    -2
100
AcDbCircle
 10
126.1088735400121
 20
156.5443977127904
 30
0.0
 40
37.00000000000004
100
AcDbArc
 50
211.3635344795762
 51
229.7071076845905
  0
POINT
  5
47FA
330
478A
100
AcDbEntity
  8
DEFPOINTS
 62
     0
100
AcDbPoint
 10
95.15629618310908
 20
136.272793065774
 30
0.0
  0
POINT
  5
47FB
330
478A
100
AcDbEntity
  8
DEFPOINTS
 62
     0
100
AcDbPoint
 10
157.061450896915
 20
176.8160023598069
 30
0.0
  0
ENDBLK
  5
478C
330
478A
100
AcDbEntity
  8
0
100
AcDbBlockEnd
  0
ENDSEC
  0
SECTION
  2
ENTITIES
  0
INSERT
  5
247E
330
19
100
AcDbEntity
  8
0
100
AcDbBlockReference
  2
MCLBOMATTRIB
 10
0.0
 20
0.0
 30
0.0
1001
MCLBOMATTRIB
1002
{
1000
1
1005
0
1005
0
1000
강관 용접식 플렌지
1005
0
1000
Steel Welding Pipe Flange
1005
0
1000
SOP 5K 10A FF
1005
0
1000

1005
2480
1000
1
1005
0
1000

1005
2481
1000

1005
0
1000

1005
2482
1000

1005
0
1000

1005
0
1000

1005
0
1000

1005
0
1000

1005
0
1000

1005
0
1002
}
  0
TEXT
  5
2480
330
19
100
AcDbEntity
  8
0
 62
   111
100
AcDbText
 10
344.9746279359911
 20
60.9644544167441
 30
0.0
 40
2.5
  1

  7
STYLE1
100
AcDbText
  0
TEXT
  5
2481
330
19
100
AcDbEntity
  8
0
 62
   111
100
AcDbText
 10
379.9746279359911
 20
60.9644544167441
 30
0.0
 40
2.5
  1

  7
STYLE1
100
AcDbText
  0
TEXT
  5
2482
330
19
100
AcDbEntity
  8
0
 62
   111
100
AcDbText
 10
394.9746279359911
 20
60.9644544167441
 30
0.0
 40
2.5
  1

  7
STYLE1
100
AcDbText
  0
MTEXT
  5
24CA
330
19
100
AcDbEntity
  8
0
100
AcDbMText
 10
295.0
 20
25.00000000000007
 30
0.0
 40
2.5
 41
20.0
 71
     5
 72
     5
  1

  7
STYLE1
 73
     1
 44
1.0
1001
ACAD
1000
MTEXTBEGIN
1070
    73
1070
     1
1070
    44
1040
1.0
1070
    74
1070
     0
1000
MTEXTEND
  0
MTEXT
  5
24DF
330
19
100
AcDbEntity
  8
0
100
AcDbMText
 10
265.0
 20
292.0
 30
0.0
 40
1.8
 41
15.0
 71
     1
 72
     5
  1

  7
STYLE1
 73
     1
 44
1.0
1001
ACAD
1000
MTEXTBEGIN
1070
    73
1070
     1
1070
    44
1040
1.0
1070
    74
1070
     0
1000
MTEXTEND
  0
TEXT
  5
32A5
330
19
100
AcDbEntity
  8
0
100
AcDbText
 10
149.9507800264357
 20
62.0960919011581
 30
0.0
 40
10.5
  1
SLK2010-2.5-R
  7
T2
 72
     4
 11
216.4507800264357
 21
67.3460919011581
 31
0.0
100
AcDbText
  0
MTEXT
  5
3954
330
19
100
AcDbEntity
  8
0
 62
   111
100
AcDbMText
 10
0.0
 20
0.0
 30
0.0
 40
3.0
 41
0.0
 71
     5
 72
     5
  1

 11
0.6658655619423123
 21
0.7460717481712123
 31
0.0
 73
     1
 44
1.0
1001
ACAD
1000
MTEXTBEGIN
1070
    73
1070
     1
1070
    44
1040
1.0
1070
    74
1070
     0
1000
MTEXTEND
  0
MTEXT
  5
3959
330
19
100
AcDbEntity
  8
0
 62
   111
100
AcDbMText
 10
0.0
 20
0.0
 30
0.0
 40
3.0
 41
0.0
 71
     5
 72
     5
  1

 11
0.9994246805919202
 21
0.0339161882253633
 31
0.0
 73
     1
 44
1.0
1001
ACAD
1000
MTEXTBEGIN
1070
    73
1070
     1
1070
    44
1040
1.0
1070
    74
1070
     0
1000
MTEXTEND
  0
MTEXT
  5
3CA0
330
19
100
AcDbEntity
  8
0
 62
   111
100
AcDbMText
 10
0.0
 20
0.0
 30
0.0
 40
3.0
 41
0.0
 71
     5
 72
     5
  1

 11
0.8978290820304724
 21
-0.4403441148242126
 31
0.0
 73
     1
 44
1.0
1001
ACAD
1000
MTEXTBEGIN
1070
    73
1070
     1
1070
    44
1040
1.0
1070
    74
1070
     0
1000
MTEXTEND
  0
MTEXT
  5
3CA1
330
19
100
AcDbEntity
  8
0
 62
   111
100
AcDbMText
 10
0.0
 20
0.0
 30
0.0
 40
3.0
 41
0.0
 71
     5
 72
     5
  1

 11
0.8978290820304724
 21
-0.4403441148242126
 31
0.0
 73
     1
 44
1.0
1001
ACAD
1000
MTEXTBEGIN
1070
    73
1070
     1
1070
    44
1040
1.0
1070
    74
1070
     0
1000
MTEXTEND
  0
MTEXT
  5
3CA2
330
19
100
AcDbEntity
  8
0
 62
   111
100
AcDbMText
 10
0.0
 20
0.0
 30
0.0
 40
3.0
 41
0.0
 71
     5
 72
     5
  1

 11
0.8978290820304724
 21
-0.4403441148242126
 31
0.0
 73
     1
 44
1.0
1001
ACAD
1000
MTEXTBEGIN
1070
    73
1070
     1
1070
    44
1040
1.0
1070
    74
1070
     0
1000
MTEXTEND
  0
MTEXT
  5
3CA3
330
19
100
AcDbEntity
  8
0
 62
   111
100
AcDbMText
 10
0.0
 20
0.0
 30
0.0
 40
3.0
 41
0.0
 71
     5
 72
     5
  1

 11
0.8978290820304724
 21
-0.4403441148242126
 31
0.0
 73
     1
 44
1.0
1001
ACAD
1000
MTEXTBEGIN
1070
    73
1070
     1
1070
    44
1040
1.0
1070
    74
1070
     0
1000
MTEXTEND
  0
MTEXT
  5
3CA8
330
19
100
AcDbEntity
  8
0
 62
   111
100
AcDbMText
 10
0.0
 20
0.0
 30
0.0
 40
3.0
 41
0.0
 71
     5
 72
     5
  1

 11
0.3826834323650868
 21
-0.9238795325112882
 31
0.0
 73
     1
 44
1.0
1001
ACAD
1000
MTEXTBEGIN
1070
    73
1070
     1
1070
    44
1040
1.0
1070
    74
1070
     0
1000
MTEXTEND
  0
LINE
  5
4622
330
19
100
AcDbEntity
  8
0
100
AcDbLine
 10
279.2055083034855
 20
189.0443977127903
 30
0.0
 11
279.2055083034855
 21
124.0443977127904
 31
0.0
  0
ARC
  5
4624
330
19
100
AcDbEntity
  8
0
100
AcDbCircle
 10
279.7055083034857
 20
124.0443977127904
 30
0.0
 40
0.5
100
AcDbArc
 50
180.0
 51
270.0
  0
LINE
  5
4625
330
19
100
AcDbEntity
  8
0
100
AcDbLine
 10
333.2055083034855
 20
179.0443977127903
 30
0.0
 11
333.2055083034855
 21
134.0443977127904
 31
0.0
  0
ARC
  5
4626
330
19
100
AcDbEntity
  8
0
100
AcDbCircle
 10
332.7055083034855
 20
179.0443977127903
 30
0.0
 40
0.5
100
AcDbArc
 50
0.0
 51
90.0
  0
LINE
  5
4627
330
19
100
AcDbEntity
  8
0
100
AcDbLine
 10
292.2055083034857
 20
189.0443977127903
 30
0.0
 11
292.2055083034857
 21
124.0443977127904
 31
0.0
  0
LINE
  5
4628
330
19
100
AcDbEntity
  8
1
  6
CENTER
 48
5.0
100
AcDbLine
 10
216.5112593805129
 20
156.5443977127904
 30
0.0
 11
409.1253668848516
 21
156.5443977127903
 31
0.0
  0
LINE
  5
462F
330
19
100
AcDbEntity
  8
0
100
AcDbLine
 10
219.5112593805129
 20
146.5443977127904
 30
0.0
 11
279.2055083034858
 21
146.5443977127904
 31
0.0
  0
LINE
  5
4630
330
19
100
AcDbEntity
  8
0
100
AcDbLine
 10
219.5112593805129
 20
166.5443977127904
 30
0.0
 11
279.2055083034858
 21
166.5443977127903
 31
0.0
  0
LINE
  5
4632
330
19
100
AcDbEntity
  8
0
100
AcDbLine
 10
292.2055083034858
 20
133.5443977127904
 30
0.0
 11
332.7055083034855
 21
133.5443977127904
 31
0.0
  0
ARC
  5
4633
330
19
100
AcDbEntity
  8
0
100
AcDbCircle
 10
332.7055083034855
 20
134.0443977127904
 30
0.0
 40
0.5
100
AcDbArc
 50
270.0
 51
0.0
  0
LINE
  5
4634
330
19
100
AcDbEntity
  8
0
100
AcDbLine
 10
292.2055083034858
 20
179.5443977127903
 30
0.0
 11
332.7055083034855
 21
179.5443977127903
 31
0.0
  0
LINE
  5
4635
330
19
100
AcDbEntity
  8
0
100
AcDbLine
 10
291.7055083034855
 20
123.5443977127904
 30
0.0
 11
279.7055083034857
 21
123.5443977127904
 31
0.0
  0
ARC
  5
4636
330
19
100
AcDbEntity
  8
0
100
AcDbCircle
 10
291.7055083034855
 20
124.0443977127904
 30
0.0
 40
0.5
100
AcDbArc
 50
270.0
 51
0.0
  0
LINE
  5
4637
330
19
100
AcDbEntity
  8
0
100
AcDbLine
 10
291.7055083034855
 20
189.5443977127903
 30
0.0
 11
279.7055083034857
 21
189.5443977127903
 31
0.0
  0
ARC
  5
4638
330
19
100
AcDbEntity
  8
0
100
AcDbCircle
 10
291.7055083034855
 20
189.0443977127903
 30
0.0
 40
0.5
100
AcDbArc
 50
0.0
 51
90.0
  0
ARC
  5
4639
330
19
100
AcDbEntity
  8
0
100
AcDbCircle
 10
279.7055083034857
 20
189.0443977127903
 30
0.0
 40
0.5
100
AcDbArc
 50
90.0
 51
180.0
  0
LINE
  5
463A
330
19
100
AcDbEntity
  8
0
100
AcDbLine
 10
219.5112593805129
 20
166.5443977127903
 30
0.0
 11
219.5112593805128
 21
146.5443977127904
 31
0.0
  0
LINE
  5
464E
330
19
100
AcDbEntity
  8
9
  6
Continuous
100
AcDbLine
 10
279.2055083034855
 20
147.8538977127904
 30
0.0
 11
219.5112593805128
 21
147.8538977127904
 31
0.0
  0
LINE
  5
4650
330
19
100
AcDbEntity
  8
9
  6
Continuous
100
AcDbLine
 10
279.2055083034855
 20
165.2348977127904
 30
0.0
 11
219.5112593805128
 21
165.2348977127904
 31
0.0
  0
LINE
  5
4652
330
19
100
AcDbEntity
  8
9
  6
Continuous
100
AcDbLine
 10
333.2055083034855
 20
147.8538977127904
 30
0.0
 11
405.420322484707
 21
147.8538977127904
 31
0.0
  0
LINE
  5
4653
330
19
100
AcDbEntity
  8
0
100
AcDbLine
 10
333.2055083034855
 20
146.5443977127904
 30
0.0
 11
405.420322484707
 21
146.5443977127904
 31
0.0
  0
LINE
  5
4654
330
19
100
AcDbEntity
  8
0
100
AcDbLine
 10
333.2055083034855
 20
166.5443977127903
 30
0.0
 11
405.420322484707
 21
166.5443977127903
 31
0.0
  0
LINE
  5
4655
330
19
100
AcDbEntity
  8
9
  6
Continuous
100
AcDbLine
 10
333.2055083034854
 20
165.2348977127904
 30
0.0
 11
405.420322484707
 21
165.2348977127904
 31
0.0
  0
ARC
  5
4656
330
19
100
AcDbEntity
  8
0
100
AcDbCircle
 10
126.108873540012
 20
156.5443977127904
 30
0.0
 40
37.0
100
AcDbArc
 50
231.5653491823119
 51
243.1119523822785
  0
ARC
  5
4657
330
19
100
AcDbEntity
  8
0
100
AcDbCircle
 10
126.108873540012
 20
156.5443977127904
 30
0.0
 40
37.0
100
AcDbArc
 50
296.8880476177215
 51
308.434650817688
  0
ARC
  5
4658
330
19
100
AcDbEntity
  8
0
100
AcDbCircle
 10
126.108873540012
 20
156.5443977127904
 30
0.0
 40
37.0
100
AcDbArc
 50
51.56534918231287
 51
63.11195238227849
  0
ARC
  5
4659
330
19
100
AcDbEntity
  8
0
100
AcDbCircle
 10
126.108873540012
 20
156.5443977127904
 30
0.0
 40
37.0
100
AcDbArc
 50
116.8880476177215
 51
128.4346508176871
  0
LINE
  5
465A
330
19
100
AcDbEntity
  8
1
  6
CENTER
 48
5.0
100
AcDbLine
 10
126.1088735400119
 20
118.5443977127904
 30
0.0
 11
126.108873540012
 21
194.5443977127904
 31
0.0
  0
LINE
  5
465B
330
19
100
AcDbEntity
  8
0
100
AcDbLine
 10
149.108873540012
 20
127.5616442204116
 30
0.0
 11
149.108873540012
 21
185.5271512051692
 31
0.0
  0
LINE
  5
465C
330
19
100
AcDbEntity
  8
0
100
AcDbLine
 10
103.1088735400121
 20
127.5616442204116
 30
0.0
 11
103.1088735400121
 21
185.5271512051692
 31
0.0
  0
LINE
  5
465D
330
19
100
AcDbEntity
  8
1
  6
CENTER
 48
5.0
100
AcDbLine
 10
91.60887354001218
 20
156.5443977127904
 30
0.0
 11
160.608873540012
 21
156.5443977127904
 31
0.0
  0
LINE
  5
465E
330
19
100
AcDbEntity
  8
0
100
AcDbLine
 10
109.3756730093306
 20
123.5443977127904
 30
0.0
 11
142.8420740706936
 21
123.5443977127904
 31
0.0
  0
LINE
  5
465F
330
19
100
AcDbEntity
  8
0
100
AcDbLine
 10
109.3756730093306
 20
189.5443977127904
 30
0.0
 11
142.8420740706936
 21
189.5443977127904
 31
0.0
  0
CIRCLE
  5
4660
330
19
100
AcDbEntity
  8
1
  6
CENTER
 48
5.0
100
AcDbCircle
 10
126.108873540012
 20
156.5443977127904
 30
0.0
 40
29.5
  0
LINE
  5
4661
330
19
100
AcDbEntity
  8
1
  6
CENTER
 48
5.0
100
AcDbLine
 10
137.358873540012
 20
176.0299692979403
 30
0.0
 11
144.3588735400119
 21
188.1543249509226
 31
0.0
  0
CIRCLE
  5
4662
330
19
100
AcDbEntity
  8
0
100
AcDbCircle
 10
140.858873540012
 20
182.0921471244313
 30
0.0
 40
5.5
  0
LINE
  5
4664
330
19
100
AcDbEntity
  8
1
  6
CENTER
 48
5.0
100
AcDbLine
 10
114.8588735400121
 20
176.0299692979403
 30
0.0
 11
107.8588735400122
 21
188.1543249509226
 31
0.0
  0
CIRCLE
  5
4665
330
19
100
AcDbEntity
  8
0
100
AcDbCircle
 10
111.3588735400121
 20
182.0921471244313
 30
0.0
 40
5.5
  0
LINE
  5
4667
330
19
100
AcDbEntity
  8
1
  6
CENTER
 48
5.0
100
AcDbLine
 10
137.358873540012
 20
137.0588261276405
 30
0.0
 11
144.3588735400119
 21
124.9344704746582
 31
0.0
  0
CIRCLE
  5
4668
330
19
100
AcDbEntity
  8
0
100
AcDbCircle
 10
140.858873540012
 20
130.9966483011494
 30
0.0
 40
5.5
  0
LINE
  5
466A
330
19
100
AcDbEntity
  8
1
  6
CENTER
 48
5.0
100
AcDbLine
 10
114.8588735400121
 20
137.0588261276405
 30
0.0
 11
107.8588735400122
 21
124.9344704746582
 31
0.0
  0
CIRCLE
  5
466B
330
19
100
AcDbEntity
  8
0
100
AcDbCircle
 10
111.3588735400121
 20
130.9966483011494
 30
0.0
 40
5.5
  0
CIRCLE
  5
466D
330
19
100
AcDbEntity
  8
2
  6
HIDDEN
 48
5.0
100
AcDbCircle
 10
126.108873540012
 20
156.5443977127904
 30
0.0
 40
23.0
  0
ARC
  5
466F
330
19
100
AcDbEntity
  8
9
  6
Continuous
100
AcDbCircle
 10
126.108873540012
 20
156.5443977127904
 30
0.0
 40
8.690499999999872
100
AcDbArc
 50
269.9999999999994
 51
180.0
  0
LINE
  5
4676
330
19
100
AcDbEntity
  8
2
  6
HIDDEN
 48
3.0
100
AcDbLine
 10
284.7055083034856
 20
125.4966483011495
 30
0.0
 11
284.7055083034856
 21
136.4966483011494
 31
0.0
  0
LINE
  5
4677
330
19
100
AcDbEntity
  8
1
  6
CENTER
 48
5.0
100
AcDbLine
 10
274.2055083034856
 20
130.9966483011494
 30
0.0
 11
297.2055083034856
 21
130.9966483011494
 31
0.0
  0
LINE
  5
4679
330
19
100
AcDbEntity
  8
2
  6
HIDDEN
 48
3.0
100
AcDbLine
 10
279.2055083034857
 20
125.4966483011495
 30
0.0
 11
284.7055083034856
 21
125.4966483011495
 31
0.0
  0
LINE
  5
467B
330
19
100
AcDbEntity
  8
2
  6
HIDDEN
 48
3.0
100
AcDbLine
 10
279.2055083034857
 20
136.4966483011494
 30
0.0
 11
284.7055083034856
 21
136.4966483011494
 31
0.0
  0
LINE
  5
4683
330
19
100
AcDbEntity
  8
0
100
AcDbLine
 10
405.420322484707
 20
166.5443977127903
 30
0.0
 11
405.420322484707
 21
146.5443977127904
 31
0.0
  0
CIRCLE
  5
4686
330
19
100
AcDbEntity
  8
0
100
AcDbCircle
 10
126.108873540012
 20
156.5443977127904
 30
0.0
 40
10.00000000000005
  0
LINE
  5
4687
330
19
100
AcDbEntity
  8
2
100
AcDbLine
 10
123.6088735400121
 20
189.4434268237511
 30
0.0
 11
123.6088735400121
 21
166.226856078309
 31
0.0
  0
LINE
  5
4688
330
19
100
AcDbEntity
  8
2
100
AcDbLine
 10
128.6088735400121
 20
189.4434268237511
 30
0.0
 11
128.6088735400121
 21
166.226856078309
 31
0.0
  0
LINE
  5
4689
330
19
100
AcDbEntity
  8
2
100
AcDbLine
 10
123.1088735400121
 20
189.3988949538734
 30
0.0
 11
123.1088735400121
 21
183.5443977127904
 31
0.0
  0
LINE
  5
468A
330
19
100
AcDbEntity
  8
2
100
AcDbLine
 10
129.1088735400121
 20
189.3988949538734
 30
0.0
 11
129.1088735400121
 21
183.5443977127904
 31
0.0
  0
LINE
  5
468B
330
19
100
AcDbEntity
  8
2
100
AcDbLine
 10
123.1088735400121
 20
183.5443977127904
 30
0.0
 11
129.1088735400121
 21
183.5443977127904
 31
0.0
  0
LINE
  5
468C
330
19
100
AcDbEntity
  8
2
100
AcDbLine
 10
123.6088735400121
 20
183.0443977127904
 30
0.0
 11
128.6088735400121
 21
183.0443977127904
 31
0.0
  0
LINE
  5
468D
330
19
100
AcDbEntity
  8
2
100
AcDbLine
 10
123.6088735400121
 20
183.0443977127904
 30
0.0
 11
123.1088735400121
 21
183.5443977127904
 31
0.0
  0
LINE
  5
468E
330
19
100
AcDbEntity
  8
2
100
AcDbLine
 10
128.6088735400121
 20
183.0443977127904
 30
0.0
 11
129.1088735400121
 21
183.5443977127904
 31
0.0
  0
LINE
  5
46C0
330
19
100
AcDbEntity
  8
2
  6
HIDDEN
 48
3.0
100
AcDbLine
 10
284.7055083034856
 20
187.5921471244313
 30
0.0
 11
284.7055083034856
 21
176.5921471244314
 31
0.0
  0
LINE
  5
46C1
330
19
100
AcDbEntity
  8
1
  6
CENTER
 48
5.0
100
AcDbLine
 10
274.2055083034856
 20
182.0921471244314
 30
0.0
 11
297.2055083034856
 21
182.0921471244314
 31
0.0
  0
LINE
  5
46C3
330
19
100
AcDbEntity
  8
2
  6
HIDDEN
 48
3.0
100
AcDbLine
 10
279.2055083034857
 20
187.5921471244313
 30
0.0
 11
284.7055083034856
 21
187.5921471244313
 31
0.0
  0
LINE
  5
46C5
330
19
100
AcDbEntity
  8
2
  6
HIDDEN
 48
3.0
100
AcDbLine
 10
279.2055083034857
 20
176.5921471244314
 30
0.0
 11
284.7055083034856
 21
176.5921471244314
 31
0.0
  0
DIMENSION
  5
46F8
330
19
100
AcDbEntity
  8
0
100
AcDbDimension
  2
*D1
 10
443.7319601324863
 20
179.5443977127903
 30
0.0
 11
439.9819601324863
 21
156.5443977127904
 31
0.0
 70
    32
  1
%%C<>
 71
     5
 42
45.9999999999999
  3
STANDARD
100
AcDbAlignedDimension
 13
332.7055083034855
 23
133.5443977127904
 33
0.0
 14
332.7055083034855
 24
179.5443977127903
 34
0.0
 50
90.0
100
AcDbRotatedDimension
1001
ACAD
1000
DSTYLE
1002
{
1070
    40
1040
1.5
1070
    41
1040
2.5
1070
    42
1040
0.8
1070
    43
1040
0.8
1070
    44
1040
0.8
1070
    73
1070
     0
1070
    74
1070
     0
1070
    77
1070
     3
1070
    78
1070
     8
1070
   141
1040
-1.0
1070
   147
1040
1.0
1070
   172
1070
     1
1070
   176
1070
   115
1070
   177
1070
   115
1070
   178
1070
     7
1070
   271
1070
     3
1002
}
  0
DIMENSION
  5
4705
330
19
100
AcDbEntity
  8
0
100
AcDbDimension
  2
*D2
 10
426.0368164679514
 20
166.5443977127903
 30
0.0
 11
422.2868164679512
 21
156.5443977127904
 31
0.0
 70
    32
  1
%%C<>
 71
     5
 42
19.99999999999991
  3
STANDARD
100
AcDbAlignedDimension
 13
405.420322484707
 23
146.5443977127904
 33
0.0
 14
405.420322484707
 24
166.5443977127903
 34
0.0
 50
90.0
100
AcDbRotatedDimension
1001
ACAD
1000
DSTYLE
1002
{
1070
    40
1040
1.5
1070
    41
1040
2.5
1070
    42
1040
0.8
1070
    43
1040
0.8
1070
    44
1040
0.8
1070
    73
1070
     0
1070
    74
1070
     0
1070
    77
1070
     3
1070
    78
1070
     8
1070
   141
1040
-1.0
1070
   147
1040
1.0
1070
   172
1070
     1
1070
   176
1070
   115
1070
   177
1070
   115
1070
   178
1070
     7
1070
   271
1070
     3
1002
}
  0
DIMENSION
  5
4712
330
19
100
AcDbEntity
  8
0
100
AcDbDimension
  2
*D3
 10
292.2055083034857
 20
110.1147448637865
 30
0.0
 11
285.7055083034857
 21
113.8647448637865
 31
0.0
 70
    32
 71
     5
 42
12.99999999999994
  3
STANDARD
100
AcDbAlignedDimension
 13
279.2055083034857
 23
124.0443977127904
 33
0.0
 14
292.2055083034857
 24
124.0443977127904
 34
0.0
100
AcDbRotatedDimension
1001
ACAD
1000
DSTYLE
1002
{
1070
    40
1040
1.5
1070
    41
1040
2.5
1070
    42
1040
0.8
1070
    43
1040
0.8
1070
    44
1040
0.8
1070
    73
1070
     0
1070
    74
1070
     0
1070
    77
1070
     3
1070
    78
1070
     8
1070
   141
1040
-1.0
1070
   147
1040
1.0
1070
   172
1070
     1
1070
   176
1070
   115
1070
   177
1070
   115
1070
   178
1070
     7
1070
   271
1070
     3
1002
}
  0
DIMENSION
  5
471F
330
19
100
AcDbEntity
  8
0
100
AcDbDimension
  2
*D4
 10
333.2055083034855
 20
110.1147448637865
 30
0.0
 11
312.7055083034855
 21
113.8647448637865
 31
0.0
 70
    32
 71
     5
 42
40.99999999999993
  3
STANDARD
100
AcDbAlignedDimension
 13
292.2055083034857
 23
124.0443977127904
 33
0.0
 14
333.2055083034855
 24
134.0443977127904
 34
0.0
100
AcDbRotatedDimension
1001
ACAD
1000
DSTYLE
1002
{
1070
    40
1040
1.5
1070
    41
1040
2.5
1070
    42
1040
0.8
1070
    43
1040
0.8
1070
    44
1040
0.8
1070
    73
1070
     0
1070
    74
1070
     0
1070
    77
1070
     3
1070
    78
1070
     8
1070
   141
1040
-1.0
1070
   147
1040
1.0
1070
   172
1070
     1
1070
   176
1070
   115
1070
   177
1070
   115
1070
   178
1070
     7
1070
   271
1070
     3
1002
}
  0
DIMENSION
  5
4735
330
19
100
AcDbEntity
  8
0
100
AcDbDimension
  2
*D5
 10
333.2055083034855
 20
100.857143686282
 30
0.0
 11
306.2055083034855
 21
104.607143686282
 31
0.0
 70
    32
 71
     5
 42
54.0
  3
STANDARD
100
AcDbAlignedDimension
 13
279.2055083034855
 23
124.0443977127904
 33
0.0
 14
333.2055083034855
 24
134.0443977127904
 34
0.0
100
AcDbRotatedDimension
1001
ACAD
1000
DSTYLE
1002
{
1070
    40
1040
1.5
1070
    41
1040
2.5
1070
    42
1040
0.8
1070
    43
1040
0.8
1070
    44
1040
0.8
1070
    73
1070
     0
1070
    74
1070
     0
1070
    77
1070
     3
1070
    78
1070
     8
1070
   141
1040
-1.0
1070
   147
1040
1.0
1070
   172
1070
     1
1070
   176
1070
   115
1070
   177
1070
   115
1070
   178
1070
     7
1070
   271
1070
     3
1002
}
  0
DIMENSION
  5
4742
330
19
100
AcDbEntity
  8
0
100
AcDbDimension
  2
*D6
 10
264.6342448790449
 20
189.5443977127903
 30
0.0
 11
260.8842448790448
 21
156.5443977127904
 31
0.0
 70
    32
 71
     5
 42
65.9999999999999
  3
STANDARD
100
AcDbAlignedDimension
 13
279.7055083034857
 23
123.5443977127904
 33
0.0
 14
279.7055083034857
 24
189.5443977127903
 34
0.0
 50
90.0
100
AcDbRotatedDimension
1001
ACAD
1000
DSTYLE
1002
{
1070
    40
1040
1.5
1070
    41
1040
2.5
1070
    42
1040
0.8
1070
    43
1040
0.8
1070
    44
1040
0.8
1070
    73
1070
     0
1070
    74
1070
     0
1070
    77
1070
     3
1070
    78
1070
     8
1070
   141
1040
-1.0
1070
   147
1040
1.0
1070
   172
1070
     1
1070
   176
1070
   115
1070
   177
1070
   115
1070
   178
1070
     7
1070
   271
1070
     3
1002
}
  0
DIMENSION
  5
4761
330
19
100
AcDbEntity
  8
0
100
AcDbDimension
  2
*D7
 10
100.6442700899606
 20
171.4374823876195
 30
0.0
 11
173.0110358865263
 21
129.1134629790391
 31
0.0
 70
   163
  1
PCD <>
 71
     5
 42
58.99999999999998
  3
STANDARD
100
AcDbDiametricDimension
 15
151.5734769900634
 25
141.6513130379613
 35
0.0
 40
0.0
1001
ACAD
1000
DSTYLE
1002
{
1070
    40
1040
1.5
1070
    41
1040
2.5
1070
    42
1040
0.8
1070
    43
1040
0.8
1070
    44
1040
0.8
1070
    73
1070
     0
1070
    74
1070
     0
1070
    77
1070
     3
1070
    78
1070
     8
1070
   141
1040
-1.0
1070
   147
1040
1.0
1070
   172
1070
     1
1070
   176
1070
   115
1070
   177
1070
   115
1070
   178
1070
     7
1070
   271
1070
     3
1070
   288
1070
     1
1002
}
1001
ACAD_DSTYLE_DIMRADIAL_EXTENSION
1070
   387
1070
     1
1070
   388
1040
0.0
1070
   390
1040
0.0
  0
DIMENSION
  5
476D
330
19
100
AcDbEntity
  8
0
100
AcDbDimension
  2
*D8
 10
107.8588735400122
 20
124.9344704746582
 30
0.0
 11
126.1088735400121
 21
114.2384828066632
 31
0.0
 70
    34
 71
     5
 42
1.047197551196574
  3
STANDARD
100
AcDb2LineAngularDimension
 13
137.358873540012
 23
137.0588261276405
 33
0.0
 14
144.3588735400119
 24
124.9344704746582
 34
0.0
 15
114.8588735400121
 25
137.0588261276405
 35
0.0
 16
118.1113478457799
 26
111.1881756411658
 36
0.0
1001
ACAD
1000
DSTYLE
1002
{
1070
    40
1040
1.5
1070
    41
1040
2.5
1070
    42
1040
0.8
1070
    43
1040
0.8
1070
    44
1040
0.8
1070
    73
1070
     0
1070
    74
1070
     0
1070
    77
1070
     3
1070
    78
1070
     8
1070
   141
1040
-1.0
1070
   147
1040
1.0
1070
   172
1070
     1
1070
   176
1070
   115
1070
   177
1070
   115
1070
   178
1070
     7
1070
   271
1070
     3
1002
}
  0
DIMENSION
  5
477C
330
19
100
AcDbEntity
  8
0
100
AcDbDimension
  2
*D9
 10
149.108873540013
 20
102.1821737761943
 30
0.0
 11
126.1088735400126
 21
105.9321737761943
 31
0.0
 70
    32
 71
     5
 42
46.00000000000084
  3
STANDARD
100
AcDbAlignedDimension
 13
103.1088735400121
 23
127.5616442204114
 33
0.0
 14
149.108873540013
 24
127.5616442204123
 34
0.0
100
AcDbRotatedDimension
1001
ACAD
1000
DSTYLE
1002
{
1070
    40
1040
1.5
1070
    41
1040
2.5
1070
    42
1040
0.8
1070
    43
1040
0.8
1070
    44
1040
0.8
1070
    73
1070
     0
1070
    74
1070
     0
1070
    77
1070
     3
1070
    78
1070
     8
1070
   141
1040
-1.0
1070
   147
1040
1.0
1070
   172
1070
     1
1070
   176
1070
   115
1070
   177
1070
   115
1070
   178
1070
     7
1070
   271
1070
     3
1002
}
  0
DIMENSION
  5
4789
330
19
100
AcDbEntity
  8
0
100
AcDbDimension
  2
*D10
 10
157.061450896915
 20
176.8160023598069
 30
0.0
 11
80.73266151738073
 21
131.3090636242778
 31
0.0
 70
    35
 71
     5
 42
74.00000000000004
  3
STANDARD
100
AcDbDiametricDimension
 15
95.15629618310908
 25
136.272793065774
 35
0.0
 40
0.0
1001
ACAD
1000
DSTYLE
1002
{
1070
    40
1040
1.5
1070
    41
1040
2.5
1070
    42
1040
0.8
1070
    43
1040
0.8
1070
    44
1040
0.8
1070
    73
1070
     0
1070
    74
1070
     0
1070
    77
1070
     3
1070
    78
1070
     8
1070
   141
1040
-1.0
1070
   147
1040
1.0
1070
   172
1070
     1
1070
   176
1070
   115
1070
   177
1070
   115
1070
   178
1070
     7
1070
   271
1070
     3
1070
   288
1070
     1
1002
}
1001
ACAD_DSTYLE_DIMRADIAL_EXTENSION
1070
   387
1070
     1
1070
   388
1040
4.041577776761703
1070
   390
1040
4.243104020022427
  0
LEADER
  5
4796
330
19
100
AcDbEntity
  8
0
100
AcDbLeader
  3
STANDARD
 73
     0
 74
     0
 75
     1
 40
4.500000000000001
 41
68.78571428571426
 76
     3
 10
143.6088735400119
 20
186.8552868452458
 30
0.0
 10
152.7534647433599
 20
202.4166550311651
 30
0.0
 10
156.5034647433599
 20
202.4166550311651
 30
0.0
340
4797
213
0.0
223
-2.25
233
0.0
1001
ACAD
1000
DSTYLE
1002
{
1070
    40
1040
1.5
1070
    41
1040
2.5
1070
    42
1040
0.8
1070
    43
1040
0.8
1070
    44
1040
0.8
1070
    73
1070
     0
1070
    74
1070
     0
1070
    77
1070
     0
1070
    78
1070
     8
1070
   141
1040
-1.0
1070
   147
1040
1.0
1070
   172
1070
     1
1070
   176
1070
   115
1070
   177
1070
   115
1070
   178
1070
     7
1070
   271
1070
     3
1002
}
  0
MTEXT
  5
4797
102
{ACAD_REACTORS
330
4796
102
}
330
19
100
AcDbEntity
  8
0
 62
     7
100
AcDbMText
 10
158.0034647433599
 20
204.6666550311651
 30
0.0
 40
4.5
 41
0.0
 71
     1
 72
     1
  1
4-%%C6.6 HOLE THRU.
 73
     1
 44
1.0
1001
ACAD
1000
MTEXTBEGIN
1070
    73
1070
     1
1070
    44
1040
1.0
1070
    74
1070
     0
1000
MTEXTEND
  0
MTEXT
  5
4798
330
19
100
AcDbEntity
  8
0
 62
     7
100
AcDbMText
 10
158.0034647433599
 20
198.3105206366449
 30
0.0
 40
4.5
 41
0.0
 71
     1
 72
     1
  1
%%C11 C'BORE DP:5.5
 73
     1
 44
1.0
1001
ACAD
1000
MTEXTBEGIN
1070
    73
1070
     1
1070
    44
1040
1.0
1070
    74
1070
     0
1000
MTEXTEND
  0
LEADER
  5
479F
330
19
100
AcDbEntity
  8
0
100
AcDbLeader
  3
STANDARD
 73
     0
 74
     0
 75
     1
 40
4.5
 41
63.2142857142857
 76
     3
 10
126.1088735400121
 20
189.5443977127904
 30
0.0
 10
138.4949964459061
 20
213.1485482360373
 30
0.0
 10
142.2449964459062
 20
213.1485482360373
 30
0.0
340
47A0
213
0.0
223
-2.25
233
0.0
1001
ACAD
1000
DSTYLE
1002
{
1070
    40
1040
1.5
1070
    41
1040
2.5
1070
    42
1040
0.8
1070
    43
1040
0.8
1070
    44
1040
0.8
1070
    73
1070
     0
1070
    74
1070
     0
1070
    77
1070
     0
1070
    78
1070
     8
1070
   141
1040
-1.0
1070
   147
1040
1.0
1070
   172
1070
     1
1070
   176
1070
   115
1070
   177
1070
   115
1070
   178
1070
     7
1070
   271
1070
     3
1002
}
  0
MTEXT
  5
47A0
102
{ACAD_REACTORS
330
479F
102
}
330
19
100
AcDbEntity
  8
0
 62
     7
100
AcDbMText
 10
143.7449964459061
 20
215.3985482360373
 30
0.0
 40
4.5
 41
0.0
 71
     1
 72
     1
  1
M6xP1.0 OIL HOLE
 73
     1
 44
1.0
1001
ACAD
1000
MTEXTBEGIN
1070
    73
1070
     1
1070
    44
1040
1.0
1070
    74
1070
     0
1000
MTEXTEND
  0
CIRCLE
  5
4819
330
19
100
AcDbEntity
  8
0
100
AcDbCircle
 10
140.8588735400119
 20
182.0921471244314
 30
0.0
 40
3.299999999999999
  0
CIRCLE
  5
481A
330
19
100
AcDbEntity
  8
0
100
AcDbCircle
 10
111.3588735400121
 20
182.0921471244314
 30
0.0
 40
3.299999999999999
  0
CIRCLE
  5
481B
330
19
100
AcDbEntity
  8
0
100
AcDbCircle
 10
140.8588735400119
 20
130.9966483011494
 30
0.0
 40
3.299999999999999
  0
CIRCLE
  5
481C
330
19
100
AcDbEntity
  8
0
100
AcDbCircle
 10
111.3588735400121
 20
130.9966483011494
 30
0.0
 40
3.299999999999999
  0
LINE
  5
481D
330
19
100
AcDbEntity
  8
2
  6
HIDDEN
 48
3.0
100
AcDbLine
 10
284.7055083034856
 20
134.2966483011494
 30
0.0
 11
292.2055083034857
 21
134.2966483011494
 31
0.0
  0
LINE
  5
481E
330
19
100
AcDbEntity
  8
2
  6
HIDDEN
 48
3.0
100
AcDbLine
 10
284.7055083034856
 20
127.6966483011493
 30
0.0
 11
292.2055083034857
 21
127.6966483011493
 31
0.0
  0
LINE
  5
481F
330
19
100
AcDbEntity
  8
2
  6
HIDDEN
 48
3.0
100
AcDbLine
 10
284.7055083034856
 20
178.7921471244313
 30
0.0
 11
292.2055083034857
 21
178.7921471244313
 31
0.0
  0
LINE
  5
4820
330
19
100
AcDbEntity
  8
2
  6
HIDDEN
 48
3.0
100
AcDbLine
 10
284.7055083034856
 20
185.3921471244313
 30
0.0
 11
292.2055083034857
 21
185.3921471244313
 31
0.0
  0
ENDSEC
  0
SECTION
  2
OBJECTS
  0
DICTIONARY
  5
C
330
0
100
AcDbDictionary
281
     1
  3
ACAD_COLOR
350
451C
  3
ACAD_GROUP
350
D
  3
ACAD_LAYOUT
350
4155
  3
ACAD_MATERIAL
350
451B
  3
ACAD_MLEADERSTYLE
350
458B
  3
ACAD_MLINESTYLE
350
E
  3
ACAD_PLOTSETTINGS
350
4156
  3
ACAD_PLOTSTYLENAME
350
4153
  3
ACAD_SCALELIST
350
4569
  3
ACAD_TABLESTYLE
350
451D
  3
ACAD_VISUALSTYLE
350
4558
  3
ACDB_RECOMPOSE_DATA
350
45A9
  3
ACDBVARIABLEDICTIONARY
350
1BF
  3
ASE_INDEX_DICTIONARY
350
46DC
  3
DWGPROPS
350
4828
  0
DICTIONARY
  5
45C0
330
2
100
AcDbDictionary
280
     1
281
     1
  3
ACAD_LAYERSTATES
360
45C1
  0
DICTIONARY
  5
459A
330
F
100
AcDbDictionary
280
     1
281
     1
  3
ADSK_XREC_LAYER_RECONCILED
360
459B
  0
DICTIONARY
  5
459C
330
55
100
AcDbDictionary
280
     1
281
     1
  3
ADSK_XREC_LAYER_RECONCILED
360
459D
  0
DICTIONARY
  5
459E
330
61
100
AcDbDictionary
280
     1
281
     1
  3
ADSK_XREC_LAYER_RECONCILED
360
459F
  0
DICTIONARY
  5
45A0
330
62
100
AcDbDictionary
280
     1
281
     1
  3
ADSK_XREC_LAYER_RECONCILED
360
45A1
  0
DICTIONARY
  5
482E
330
47D9
100
AcDbDictionary
280
     1
281
     1
  3
ACAD_MTEXT_RT
360
482F
  0
DICTIONARY
  5
4830
330
47E4
100
AcDbDictionary
280
     1
281
     1
  3
ACAD_MTEXT_RT
360
4831
  0
DICTIONARY
  5
4832
330
47F5
100
AcDbDictionary
280
     1
281
     1
  3
ACAD_MTEXT_RT
360
4833
  0
DICTIONARY
  5
451C
102
{ACAD_REACTORS
330
C
102
}
330
C
100
AcDbDictionary
281
     1
  0
DICTIONARY
  5
D
102
{ACAD_REACTORS
330
C
102
}
330
C
100
AcDbDictionary
281
     1
  3
*A1
350
3315
  3
*A2
350
3935
  0
DICTIONARY
  5
4155
102
{ACAD_REACTORS
330
C
102
}
330
C
100
AcDbDictionary
281
     1
  3
Model
350
4157
  3
배치1
350
4158
  0
DICTIONARY
  5
451B
102
{ACAD_REACTORS
330
C
102
}
330
C
100
AcDbDictionary
281
     1
  3
ByBlock
350
4548
  3
ByLayer
350
4540
  3
Global
350
4550
  0
DICTIONARY
  5
458B
102
{ACAD_REACTORS
330
C
102
}
330
C
100
AcDbDictionary
281
     1
  3
Standard
350
458C
  0
DICTIONARY
  5
E
102
{ACAD_REACTORS
330
C
102
}
330
C
100
AcDbDictionary
281
     1
  3
STANDARD
350
1C
  0
DICTIONARY
  5
4156
102
{ACAD_REACTORS
330
C
102
}
330
C
100
AcDbDictionary
281
     1
  0
ACDBDICTIONARYWDFLT
  5
4153
102
{ACAD_REACTORS
330
C
102
}
330
C
100
AcDbDictionary
281
     1
  3
Normal
350
4154
100
AcDbDictionaryWithDefault
340
4154
  0
DICTIONARY
  5
4569
102
{ACAD_REACTORS
330
C
102
}
330
C
100
AcDbDictionary
281
     1
  3
A0
350
456A
  3
A1
350
456B
  3
A2
350
456C
  3
A3
350
456D
  3
A4
350
456E
  3
A5
350
456F
  3
A6
350
4570
  3
A7
350
4571
  3
A8
350
4572
  3
A9
350
4573
  3
B0
350
4574
  3
B1
350
4575
  3
B2
350
4576
  3
B3
350
4577
  3
B4
350
4578
  3
B5
350
4579
  3
B6
350
457A
  3
B7
350
457B
  3
B8
350
457C
  3
B9
350
457D
  3
C0
350
457E
  3
C1
350
457F
  3
C2
350
4580
  3
C3
350
4581
  3
C4
350
4582
  3
C5
350
4583
  3
C6
350
4584
  3
C7
350
4585
  3
C8
350
4586
  3
C9
350
4587
  3
D0
350
4588
  3
D1
350
4589
  3
D2
350
458A
  0
DICTIONARY
  5
451D
102
{ACAD_REACTORS
330
C
102
}
330
C
100
AcDbDictionary
281
     1
  3
Standard
350
451E
  0
DICTIONARY
  5
4558
102
{ACAD_REACTORS
330
C
102
}
330
C
100
AcDbDictionary
281
     1
  3
2dWireframe
350
455E
  3
3D Hidden
350
4560
  3
3dWireframe
350
455F
  3
Basic
350
455D
  3
Brighten
350
4564
  3
ColorChange
350
4568
  3
Conceptual
350
4561
  3
Dim
350
4563
  3
Facepattern
350
4567
  3
Flat
350
4559
  3
FlatWithEdges
350
455A
  3
Gouraud
350
455B
  3
GouraudWithEdges
350
455C
  3
Linepattern
350
4566
  3
Realistic
350
4562
  3
Thicken
350
4565
  0
XRECORD
  5
45A9
102
{ACAD_REACTORS
330
C
102
}
330
C
100
AcDbXrecord
280
     1
 90
        1
330
451E
  0
DICTIONARY
  5
1BF
102
{ACAD_REACTORS
330
C
102
}
330
C
100
AcDbDictionary
281
     1
  3
CANNOSCALE
350
45A5
  3
CMLEADERSTYLE
350
45A4
  3
CTABLESTYLE
350
4532
  3
DIMASSOC
350
4169
  3
INDEXCTL
350
45A6
  3
PROJECTNAME
350
4533
  3
SORTENTS
350
1C0
  0
DICTIONARY
  5
46DC
102
{ACAD_REACTORS
330
C
102
}
330
C
100
AcDbDictionary
281
     1
  3
ASEBlockHierarchyIndexRecord
350
46DE
1001
DCO15
1040
1714136973.469
  0
XRECORD
  5
4828
102
{ACAD_REACTORS
330
C
102
}
330
C
100
AcDbXrecord
280
     1
  1
DWGPROPS COOKIE
  2

  3

  4

  6

  7

  8
양순영
  9

300
=
301
=
302
=
303
=
304
=
305
=
306
=
307
=
308
=
309
=
 40
0.5248138078703704
 41
2452464.575009942
 42
2455666.412790856
  1

 90
        0
  0
DICTIONARY
  5
45C1
102
{ACAD_REACTORS
330
45C0
102
}
330
45C0
100
AcDbDictionary
281
     1
  0
XRECORD
  5
459B
102
{ACAD_REACTORS
330
459A
102
}
330
459A
100
AcDbXrecord
280
     1
290
     1
  0
XRECORD
  5
459D
102
{ACAD_REACTORS
330
459C
102
}
330
459C
100
AcDbXrecord
280
     1
290
     1
  0
XRECORD
  5
459F
102
{ACAD_REACTORS
330
459E
102
}
330
459E
100
AcDbXrecord
280
     1
290
     1
  0
XRECORD
  5
45A1
102
{ACAD_REACTORS
330
45A0
102
}
330
45A0
100
AcDbXrecord
280
     1
290
     1
  0
XRECORD
  5
482F
102
{ACAD_REACTORS
330
482E
102
}
330
482E
100
AcDbXrecord
280
     1
 40
8824.0
  1
\A1;PCD \U+220559
  0
XRECORD
  5
4831
102
{ACAD_REACTORS
330
4830
102
}
330
4830
100
AcDbXrecord
280
     1
 40
5298.0
  1
\A1;60°
  0
XRECORD
  5
4833
102
{ACAD_REACTORS
330
4832
102
}
330
4832
100
AcDbXrecord
280
     1
 40
5125.0
  1
\A1;\U+220574
  0
GROUP
  5
3315
102
{ACAD_REACTORS
330
D
102
}
330
D
100
AcDbGroup
300
Ball Screw  BNFN2010-1.5+300L
 70
     1
 71
     1
  0
GROUP
  5
3935
102
{ACAD_REACTORS
330
D
102
}
330
D
100
AcDbGroup
300
Ball Screw  BNFN2010-1.5+300L
 70
     1
 71
     1
  0
LAYOUT
  5
4157
102
{ACAD_XDICTIONARY
360
4829
102
}
102
{ACAD_REACTORS
330
4155
102
}
330
4155
100
AcDbPlotSettings
  1

  2
SBC-SERVER에서 자동 HP LaserJet 4V
  4
A4
  6

 40
6.805083274841307
 41
5.069413185119628
 42
6.805084228515625
 43
5.027069091796875
 44
209.9733276367186
 45
296.9683227539062
 46
0.0
 47
0.0
 48
0.0
 49
0.0
140
0.0
141
0.0
142
1.0
143
1.0
 70
 11952
 72
     0
 73
     1
 74
     0
  7
1.ctb
 75
     0
147
1.0
148
-1105.008668280591
149
-2180.822690011071
100
AcDbLayout
  1
Model
 70
     1
 71
     0
 10
0.0
 20
0.0
 11
12.0
 21
9.0
 12
0.0
 22
0.0
 32
0.0
 14
0.0
 24
0.0
 34
0.0
 15
0.0
 25
0.0
 35
0.0
146
0.0
 13
0.0
 23
0.0
 33
0.0
 16
1.0
 26
0.0
 36
0.0
 17
0.0
 27
1.0
 37
0.0
 76
     0
330
19
331
4534
  0
LAYOUT
  5
4158
102
{ACAD_XDICTIONARY
360
482B
102
}
102
{ACAD_REACTORS
330
4155
102
}
330
4155
100
AcDbPlotSettings
  1

  2
SBC-SERVER에서 자동 HP LaserJet 4V
  4

  6

 40
0.0
 41
0.0
 42
0.0
 43
0.0
 44
0.0
 45
0.0
 46
0.0
 47
0.0
 48
0.0
 49
0.0
140
0.0
141
0.0
142
1.0
143
1.0
 70
   688
 72
     0
 73
     0
 74
     5
  7
1.ctb
 75
    16
147
1.0
148
0.0
149
0.0
100
AcDbLayout
  1
배치1
 70
     1
 71
     1
 10
0.0
 20
0.0
 11
12.0
 21
9.0
 12
0.0
 22
0.0
 32
0.0
 14
1.000000000000000E+20
 24
1.000000000000000E+20
 34
1.000000000000000E+20
 15
-1.000000000000000E+20
 25
-1.000000000000000E+20
 35
-1.000000000000000E+20
146
0.0
 13
0.0
 23
0.0
 33
0.0
 16
1.0
 26
0.0
 36
0.0
 17
0.0
 27
1.0
 37
0.0
 76
     0
330
16
  0
MATERIAL
  5
4548
102
{ACAD_XDICTIONARY
360
4549
102
}
102
{ACAD_REACTORS
330
451B
102
}
330
451B
100
AcDbMaterial
  1
ByBlock
 72
     0
 43
0.0208333333333333
 43
0.0
 43
0.0
 43
0.0
 43
0.0
 43
0.0208333333333333
 43
0.0
 43
0.0
 43
0.0
 43
0.0
 43
1.0
 43
0.0
 43
0.0
 43
0.0
 43
0.0
 43
1.0
 77
     0
 47
0.0208333333333333
 47
0.0
 47
0.0
 47
0.0
 47
0.0
 47
0.0208333333333333
 47
0.0
 47
0.0
 47
0.0
 47
0.0
 47
1.0
 47
0.0
 47
0.0
 47
0.0
 47
0.0
 47
1.0
171
     0
 49
0.0208333333333333
 49
0.0
 49
0.0
 49
0.0
 49
0.0
 49
0.0208333333333333
 49
0.0
 49
0.0
 49
0.0
 49
0.0
 49
1.0
 49
0.0
 49
0.0
 49
0.0
 49
0.0
 49
1.0
175
     0
142
0.0208333333333333
142
0.0
142
0.0
142
0.0
142
0.0
142
0.0208333333333333
142
0.0
142
0.0
142
0.0
142
0.0
142
1.0
142
0.0
142
0.0
142
0.0
142
0.0
142
1.0
179
     0
144
0.0208333333333333
144
0.0
144
0.0
144
0.0
144
0.0
144
0.0208333333333333
144
0.0
144
0.0
144
0.0
144
0.0
144
1.0
144
0.0
144
0.0
144
0.0
144
0.0
144
1.0
147
0.0208333333333333
147
0.0
147
0.0
147
0.0
147
0.0
147
0.0208333333333333
147
0.0
147
0.0
147
0.0
147
0.0
147
1.0
147
0.0
147
0.0
147
0.0
147
0.0
147
1.0
  0
MATERIAL
  5
4540
102
{ACAD_XDICTIONARY
360
4541
102
}
102
{ACAD_REACTORS
330
451B
102
}
330
451B
100
AcDbMaterial
  1
ByLayer
 72
     0
 43
0.0208333333333333
 43
0.0
 43
0.0
 43
0.0
 43
0.0
 43
0.0208333333333333
 43
0.0
 43
0.0
 43
0.0
 43
0.0
 43
1.0
 43
0.0
 43
0.0
 43
0.0
 43
0.0
 43
1.0
 77
     0
 47
0.0208333333333333
 47
0.0
 47
0.0
 47
0.0
 47
0.0
 47
0.0208333333333333
 47
0.0
 47
0.0
 47
0.0
 47
0.0
 47
1.0
 47
0.0
 47
0.0
 47
0.0
 47
0.0
 47
1.0
171
     0
 49
0.0208333333333333
 49
0.0
 49
0.0
 49
0.0
 49
0.0
 49
0.0208333333333333
 49
0.0
 49
0.0
 49
0.0
 49
0.0
 49
1.0
 49
0.0
 49
0.0
 49
0.0
 49
0.0
 49
1.0
175
     0
142
0.0208333333333333
142
0.0
142
0.0
142
0.0
142
0.0
142
0.0208333333333333
142
0.0
142
0.0
142
0.0
142
0.0
142
1.0
142
0.0
142
0.0
142
0.0
142
0.0
142
1.0
179
     0
144
0.0208333333333333
144
0.0
144
0.0
144
0.0
144
0.0
144
0.0208333333333333
144
0.0
144
0.0
144
0.0
144
0.0
144
1.0
144
0.0
144
0.0
144
0.0
144
0.0
144
1.0
147
0.0208333333333333
147
0.0
147
0.0
147
0.0
147
0.0
147
0.0208333333333333
147
0.0
147
0.0
147
0.0
147
0.0
147
1.0
147
0.0
147
0.0
147
0.0
147
0.0
147
1.0
  0
MATERIAL
  5
4550
102
{ACAD_XDICTIONARY
360
4551
102
}
102
{ACAD_REACTORS
330
451B
102
}
330
451B
100
AcDbMaterial
  1
Global
 72
     0
 43
0.0208333333333333
 43
0.0
 43
0.0
 43
0.0
 43
0.0
 43
0.0208333333333333
 43
0.0
 43
0.0
 43
0.0
 43
0.0
 43
1.0
 43
0.0
 43
0.0
 43
0.0
 43
0.0
 43
1.0
 77
     0
 47
0.0208333333333333
 47
0.0
 47
0.0
 47
0.0
 47
0.0
 47
0.0208333333333333
 47
0.0
 47
0.0
 47
0.0
 47
0.0
 47
1.0
 47
0.0
 47
0.0
 47
0.0
 47
0.0
 47
1.0
171
     0
 49
0.0208333333333333
 49
0.0
 49
0.0
 49
0.0
 49
0.0
 49
0.0208333333333333
 49
0.0
 49
0.0
 49
0.0
 49
0.0
 49
1.0
 49
0.0
 49
0.0
 49
0.0
 49
0.0
 49
1.0
175
     0
142
0.0208333333333333
142
0.0
142
0.0
142
0.0
142
0.0
142
0.0208333333333333
142
0.0
142
0.0
142
0.0
142
0.0
142
1.0
142
0.0
142
0.0
142
0.0
142
0.0
142
1.0
179
     0
144
0.0208333333333333
144
0.0
144
0.0
144
0.0
144
0.0
144
0.0208333333333333
144
0.0
144
0.0
144
0.0
144
0.0
144
1.0
144
0.0
144
0.0
144
0.0
144
0.0
144
1.0
147
0.0208333333333333
147
0.0
147
0.0
147
0.0
147
0.0
147
0.0208333333333333
147
0.0
147
0.0
147
0.0
147
0.0
147
1.0
147
0.0
147
0.0
147
0.0
147
0.0
147
1.0
  0
MLEADERSTYLE
  5
458C
102
{ACAD_REACTORS
330
458B
102
}
330
458B
100
AcDbMLeaderStyle
170
     2
171
     1
172
     0
 90
        2
 40
0.0
 41
0.0
173
     1
 91
-1056964608
340
13
 92
       -2
290
     1
 42
0.09
291
     1
 43
0.36
  3
Standard
 44
0.18
300

342
10
174
     1
178
     6
175
     1
176
     0
 93
-1056964608
 45
0.18
292
     0
297
     0
 46
0.18
 94
-1056964608
 47
1.0
 49
1.0
140
1.0
293
     1
141
0.0
294
     1
177
     0
142
1.0
295
     0
296
     0
143
0.125
1001
ACAD_MLEADERVER
1070
     2
  0
MLINESTYLE
  5
1C
102
{ACAD_REACTORS
330
E
102
}
330
E
100
AcDbMlineStyle
  2
STANDARD
 70
     0
  3

 62
     0
 51
90.0
 52
90.0
 71
     2
 49
0.5
 62
   256
  6
BYLAYER
 49
-0.5
 62
   256
  6
BYLAYER
  0
ACDBPLACEHOLDER
  5
4154
102
{ACAD_REACTORS
330
4153
102
}
330
4153
  0
SCALE
  5
456A
102
{ACAD_REACTORS
330
4569
102
}
330
4569
100
AcDbScale
 70
     0
300
1:1
140
1.0
141
1.0
290
     1
  0
SCALE
  5
456B
102
{ACAD_REACTORS
330
4569
102
}
330
4569
100
AcDbScale
 70
     0
300
1:2
140
1.0
141
2.0
290
     0
  0
SCALE
  5
456C
102
{ACAD_REACTORS
330
4569
102
}
330
4569
100
AcDbScale
 70
     0
300
1:4
140
1.0
141
4.0
290
     0
  0
SCALE
  5
456D
102
{ACAD_REACTORS
330
4569
102
}
330
4569
100
AcDbScale
 70
     0
300
1:5
140
1.0
141
5.0
290
     0
  0
SCALE
  5
456E
102
{ACAD_REACTORS
330
4569
102
}
330
4569
100
AcDbScale
 70
     0
300
1:8
140
1.0
141
8.0
290
     0
  0
SCALE
  5
456F
102
{ACAD_REACTORS
330
4569
102
}
330
4569
100
AcDbScale
 70
     0
300
1:10
140
1.0
141
10.0
290
     0
  0
SCALE
  5
4570
102
{ACAD_REACTORS
330
4569
102
}
330
4569
100
AcDbScale
 70
     0
300
1:16
140
1.0
141
16.0
290
     0
  0
SCALE
  5
4571
102
{ACAD_REACTORS
330
4569
102
}
330
4569
100
AcDbScale
 70
     0
300
1:20
140
1.0
141
20.0
290
     0
  0
SCALE
  5
4572
102
{ACAD_REACTORS
330
4569
102
}
330
4569
100
AcDbScale
 70
     0
300
1:30
140
1.0
141
30.0
290
     0
  0
SCALE
  5
4573
102
{ACAD_REACTORS
330
4569
102
}
330
4569
100
AcDbScale
 70
     0
300
1:40
140
1.0
141
40.0
290
     0
  0
SCALE
  5
4574
102
{ACAD_REACTORS
330
4569
102
}
330
4569
100
AcDbScale
 70
     0
300
1:50
140
1.0
141
50.0
290
     0
  0
SCALE
  5
4575
102
{ACAD_REACTORS
330
4569
102
}
330
4569
100
AcDbScale
 70
     0
300
1:100
140
1.0
141
100.0
290
     0
  0
SCALE
  5
4576
102
{ACAD_REACTORS
330
4569
102
}
330
4569
100
AcDbScale
 70
     0
300
2:1
140
2.0
141
1.0
290
     0
  0
SCALE
  5
4577
102
{ACAD_REACTORS
330
4569
102
}
330
4569
100
AcDbScale
 70
     0
300
4:1
140
4.0
141
1.0
290
     0
  0
SCALE
  5
4578
102
{ACAD_REACTORS
330
4569
102
}
330
4569
100
AcDbScale
 70
     0
300
8:1
140
8.0
141
1.0
290
     0
  0
SCALE
  5
4579
102
{ACAD_REACTORS
330
4569
102
}
330
4569
100
AcDbScale
 70
     0
300
10:1
140
10.0
141
1.0
290
     0
  0
SCALE
  5
457A
102
{ACAD_REACTORS
330
4569
102
}
330
4569
100
AcDbScale
 70
     0
300
100:1
140
100.0
141
1.0
290
     0
  0
SCALE
  5
457B
102
{ACAD_REACTORS
330
4569
102
}
330
4569
100
AcDbScale
 70
     0
300
1/128" = 1'-0"
140
0.0078125
141
12.0
290
     0
  0
SCALE
  5
457C
102
{ACAD_REACTORS
330
4569
102
}
330
4569
100
AcDbScale
 70
     0
300
1/64" = 1'-0"
140
0.015625
141
12.0
290
     0
  0
SCALE
  5
457D
102
{ACAD_REACTORS
330
4569
102
}
330
4569
100
AcDbScale
 70
     0
300
1/32" = 1'-0"
140
0.03125
141
12.0
290
     0
  0
SCALE
  5
457E
102
{ACAD_REACTORS
330
4569
102
}
330
4569
100
AcDbScale
 70
     0
300
1/16" = 1'-0"
140
0.0625
141
12.0
290
     0
  0
SCALE
  5
457F
102
{ACAD_REACTORS
330
4569
102
}
330
4569
100
AcDbScale
 70
     0
300
3/32" = 1'-0"
140
0.09375
141
12.0
290
     0
  0
SCALE
  5
4580
102
{ACAD_REACTORS
330
4569
102
}
330
4569
100
AcDbScale
 70
     0
300
1/8" = 1'-0"
140
0.125
141
12.0
290
     0
  0
SCALE
  5
4581
102
{ACAD_REACTORS
330
4569
102
}
330
4569
100
AcDbScale
 70
     0
300
3/16" = 1'-0"
140
0.1875
141
12.0
290
     0
  0
SCALE
  5
4582
102
{ACAD_REACTORS
330
4569
102
}
330
4569
100
AcDbScale
 70
     0
300
1/4" = 1'-0"
140
0.25
141
12.0
290
     0
  0
SCALE
  5
4583
102
{ACAD_REACTORS
330
4569
102
}
330
4569
100
AcDbScale
 70
     0
300
3/8" = 1'-0"
140
0.375
141
12.0
290
     0
  0
SCALE
  5
4584
102
{ACAD_REACTORS
330
4569
102
}
330
4569
100
AcDbScale
 70
     0
300
1/2" = 1'-0"
140
0.5
141
12.0
290
     0
  0
SCALE
  5
4585
102
{ACAD_REACTORS
330
4569
102
}
330
4569
100
AcDbScale
 70
     0
300
3/4" = 1'-0"
140
0.75
141
12.0
290
     0
  0
SCALE
  5
4586
102
{ACAD_REACTORS
330
4569
102
}
330
4569
100
AcDbScale
 70
     0
300
1" = 1'-0"
140
1.0
141
12.0
290
     0
  0
SCALE
  5
4587
102
{ACAD_REACTORS
330
4569
102
}
330
4569
100
AcDbScale
 70
     0
300
1-1/2" = 1'-0"
140
1.5
141
12.0
290
     0
  0
SCALE
  5
4588
102
{ACAD_REACTORS
330
4569
102
}
330
4569
100
AcDbScale
 70
     0
300
3" = 1'-0"
140
3.0
141
12.0
290
     0
  0
SCALE
  5
4589
102
{ACAD_REACTORS
330
4569
102
}
330
4569
100
AcDbScale
 70
     0
300
6" = 1'-0"
140
6.0
141
12.0
290
     0
  0
SCALE
  5
458A
102
{ACAD_REACTORS
330
4569
102
}
330
4569
100
AcDbScale
 70
     0
300
1'-0" = 1'-0"
140
12.0
141
12.0
290
     0
  0
TABLESTYLE
  5
451E
102
{ACAD_XDICTIONARY
360
45A7
102
}
102
{ACAD_REACTORS
330
451D
102
}
330
451D
100
AcDbTableStyle
  3
Standard
 70
     0
 71
     0
 40
0.06
 41
0.06
280
     0
281
     0
  7
STANDARD
140
0.18
170
     2
 62
     0
 63
     7
283
     0
274
    -2
284
     1
 64
     0
275
    -2
285
     1
 65
     0
276
    -2
286
     1
 66
     0
277
    -2
287
     1
 67
     0
278
    -2
288
     1
 68
     0
279
    -2
289
     1
 69
     0
  7
STANDARD
140
0.25
170
     5
 62
     0
 63
     7
283
     0
274
    -2
284
     1
 64
     0
275
    -2
285
     1
 65
     0
276
    -2
286
     1
 66
     0
277
    -2
287
     1
 67
     0
278
    -2
288
     1
 68
     0
279
    -2
289
     1
 69
     0
  7
STANDARD
140
0.18
170
     5
 62
     0
 63
     7
283
     0
274
    -2
284
     1
 64
     0
275
    -2
285
     1
 65
     0
276
    -2
286
     1
 66
     0
277
    -2
287
     1
 67
     0
278
    -2
288
     1
 68
     0
279
    -2
289
     1
 69
     0
  0
VISUALSTYLE
  5
455E
102
{ACAD_REACTORS
330
4558
102
}
330
4558
100
AcDbVisualStyle
  2
2dWireframe
 70
     4
 71
     0
 72
     2
 73
     0
 90
        0
 40
-0.6
 41
-30.0
 62
     5
 63
     7
 74
     1
 91
        4
 64
     7
 65
   257
 75
     1
175
     1
 42
1.0
 92
        0
 66
   257
 43
1.0
 76
     1
 77
     6
 78
     2
 67
     7
 79
     5
170
     0
171
     0
290
     0
174
     0
 93
        1
 44
0.0
173
     0
291
     0
 45
0.0
1001
ACAD
1000
AcDbSavedByObjectVersion
1070
     0
1000
AcDbSavedByObjectVersion
1070
     0
1000
AcDbSavedByObjectVersion
1070
     0
1000
AcDbSavedByObjectVersion
1070
     0
  0
VISUALSTYLE
  5
4560
102
{ACAD_REACTORS
330
4558
102
}
330
4558
100
AcDbVisualStyle
  2
3D Hidden
 70
     6
 71
     1
 72
     2
 73
     2
 90
        0
 40
-0.6
 41
-30.0
 62
     5
 63
     7
 74
     2
 91
        2
 64
     7
 65
   257
 75
     2
175
     1
 42
40.0
 92
        0
 66
   257
 43
1.0
 76
     1
 77
     6
 78
     2
 67
     7
 79
     3
170
     0
171
     0
290
     0
174
     0
 93
        1
 44
0.0
173
     0
291
     0
 45
0.0
1001
ACAD
1000
AcDbSavedByObjectVersion
1070
     0
1000
AcDbSavedByObjectVersion
1070
     0
1000
AcDbSavedByObjectVersion
1070
     0
1000
AcDbSavedByObjectVersion
1070
     0
  0
VISUALSTYLE
  5
455F
102
{ACAD_REACTORS
330
4558
102
}
330
4558
100
AcDbVisualStyle
  2
3dWireframe
 70
     5
 71
     0
 72
     2
 73
     0
 90
        0
 40
-0.6
 41
-30.0
 62
     5
 63
     7
 74
     1
 91
        4
 64
     7
 65
   257
 75
     1
175
     1
 42
1.0
 92
        0
 66
   257
 43
1.0
 76
     1
 77
     6
 78
     2
 67
     7
 79
     5
170
     0
171
     0
290
     0
174
     0
 93
        1
 44
0.0
173
     0
291
     0
 45
0.0
1001
ACAD
1000
AcDbSavedByObjectVersion
1070
     0
1000
AcDbSavedByObjectVersion
1070
     0
1000
AcDbSavedByObjectVersion
1070
     0
1000
AcDbSavedByObjectVersion
1070
     0
  0
VISUALSTYLE
  5
455D
102
{ACAD_REACTORS
330
4558
102
}
330
4558
100
AcDbVisualStyle
  2
Basic
 70
     7
 71
     1
 72
     0
 73
     1
 90
        0
 40
-0.6
 41
-30.0
 62
     5
 63
     7
 74
     0
 91
        4
 64
     7
 65
   257
 75
     1
175
     1
 42
1.0
 92
        8
 66
     7
 43
1.0
 76
     1
 77
     6
 78
     2
 67
     7
 79
     5
170
     0
171
     0
290
     0
174
     0
 93
        1
 44
0.0
173
     0
291
     1
 45
0.0
1001
ACAD
1000
AcDbSavedByObjectVersion
1070
     0
1000
AcDbSavedByObjectVersion
1070
     0
1000
AcDbSavedByObjectVersion
1070
     0
1000
AcDbSavedByObjectVersion
1070
     0
  0
VISUALSTYLE
  5
4564
102
{ACAD_REACTORS
330
4558
102
}
330
4558
100
AcDbVisualStyle
  2
Brighten
 70
    12
 71
     2
 72
     2
 73
     0
 90
        0
 40
-0.6
 41
-30.0
 62
     5
 63
     7
 74
     1
 91
        4
 64
     7
 65
   257
 75
     1
175
     1
 42
1.0
 92
        8
 66
     7
 43
1.0
 76
     1
 77
     6
 78
     2
 67
     7
 79
     5
170
     0
171
     0
290
     0
174
     0
 93
        1
 44
50.0
173
     0
291
     1
 45
0.0
1001
ACAD
1000
AcDbSavedByObjectVersion
1070
     0
1000
AcDbSavedByObjectVersion
1070
     0
1000
AcDbSavedByObjectVersion
1070
     0
1000
AcDbSavedByObjectVersion
1070
     0
  0
VISUALSTYLE
  5
4568
102
{ACAD_REACTORS
330
4558
102
}
330
4558
100
AcDbVisualStyle
  2
ColorChange
 70
    16
 71
     2
 72
     2
 73
     3
 90
        0
 40
-0.6
 41
-30.0
 62
     5
 63
     8
 74
     1
 91
        4
 64
     7
 65
   257
 75
     1
175
     1
 42
1.0
 92
        8
 66
     8
 43
1.0
 76
     1
 77
     6
 78
     2
 67
     7
 79
     5
170
     0
171
     0
290
     0
174
     0
 93
        1
 44
0.0
173
     0
291
     1
 45
0.0
1001
ACAD
1000
AcDbSavedByObjectVersion
1070
     0
1000
AcDbSavedByObjectVersion
1070
     0
1000
AcDbSavedByObjectVersion
1070
     0
1000
AcDbSavedByObjectVersion
1070
     0
  0
VISUALSTYLE
  5
4561
102
{ACAD_REACTORS
330
4558
102
}
330
4558
100
AcDbVisualStyle
  2
Conceptual
 70
     9
 71
     3
 72
     2
 73
     0
 90
        0
 40
-0.6
 41
-30.0
 62
     5
 63
     7
 74
     2
 91
        2
 64
     7
 65
   257
 75
     1
175
     1
 42
40.0
 92
        8
 66
     7
 43
1.0
 76
     1
 77
     6
 78
     2
 67
     7
 79
     3
170
     0
171
     0
290
     0
174
     0
 93
        1
 44
0.0
173
     0
291
     0
 45
0.0
1001
ACAD
1000
AcDbSavedByObjectVersion
1070
     0
1000
AcDbSavedByObjectVersion
1070
     0
1000
AcDbSavedByObjectVersion
1070
     0
1000
AcDbSavedByObjectVersion
1070
     0
  0
VISUALSTYLE
  5
4563
102
{ACAD_REACTORS
330
4558
102
}
330
4558
100
AcDbVisualStyle
  2
Dim
 70
    11
 71
     2
 72
     2
 73
     0
 90
        0
 40
-0.6
 41
-30.0
 62
     5
 63
     7
 74
     1
 91
        4
 64
     7
 65
   257
 75
     1
175
     1
 42
1.0
 92
        8
 66
     7
 43
1.0
 76
     1
 77
     6
 78
     2
 67
     7
 79
     5
170
     0
171
     0
290
     0
174
     0
 93
        1
 44
-50.0
173
     0
291
     1
 45
0.0
1001
ACAD
1000
AcDbSavedByObjectVersion
1070
     0
1000
AcDbSavedByObjectVersion
1070
     0
1000
AcDbSavedByObjectVersion
1070
     0
1000
AcDbSavedByObjectVersion
1070
     0
  0
VISUALSTYLE
  5
4567
102
{ACAD_REACTORS
330
4558
102
}
330
4558
100
AcDbVisualStyle
  2
Facepattern
 70
    15
 71
     2
 72
     2
 73
     0
 90
        0
 40
-0.6
 41
-30.0
 62
     5
 63
     7
 74
     1
 91
        4
 64
     7
 65
   257
 75
     1
175
     1
 42
1.0
 92
        8
 66
     7
 43
1.0
 76
     1
 77
     6
 78
     2
 67
     7
 79
     5
170
     0
171
     0
290
     0
174
     0
 93
        1
 44
0.0
173
     0
291
     1
 45
0.0
1001
ACAD
1000
AcDbSavedByObjectVersion
1070
     0
1000
AcDbSavedByObjectVersion
1070
     0
1000
AcDbSavedByObjectVersion
1070
     0
1000
AcDbSavedByObjectVersion
1070
     0
  0
VISUALSTYLE
  5
4559
102
{ACAD_REACTORS
330
4558
102
}
330
4558
100
AcDbVisualStyle
  2
Flat
 70
     0
 71
     2
 72
     1
 73
     1
 90
        2
 40
-0.6
 41
30.0
 62
     5
 63
     7
 74
     0
 91
        4
 64
     7
 65
   257
 75
     1
175
     1
 42
1.0
 92
        8
 66
     7
 43
1.0
 76
     1
 77
     6
 78
     2
 67
     7
 79
     5
170
     0
171
     0
290
     0
174
     0
 93
       13
 44
0.0
173
     0
291
     1
 45
0.0
1001
ACAD
1000
AcDbSavedByObjectVersion
1070
     0
1000
AcDbSavedByObjectVersion
1070
     0
1000
AcDbSavedByObjectVersion
1070
     0
1000
AcDbSavedByObjectVersion
1070
     0
  0
VISUALSTYLE
  5
455A
102
{ACAD_REACTORS
330
4558
102
}
330
4558
100
AcDbVisualStyle
  2
FlatWithEdges
 70
     1
 71
     2
 72
     1
 73
     1
 90
        2
 40
-0.6
 41
30.0
 62
     5
 63
     7
 74
     1
 91
        4
 64
     7
 65
   257
 75
     1
175
     1
 42
1.0
 92
        0
 66
   257
 43
1.0
 76
     1
 77
     6
 78
     2
 67
     7
 79
     5
170
     0
171
     0
290
     0
174
     0
 93
       13
 44
0.0
173
     0
291
     1
 45
0.0
1001
ACAD
1000
AcDbSavedByObjectVersion
1070
     0
1000
AcDbSavedByObjectVersion
1070
     0
1000
AcDbSavedByObjectVersion
1070
     0
1000
AcDbSavedByObjectVersion
1070
     0
  0
VISUALSTYLE
  5
455B
102
{ACAD_REACTORS
330
4558
102
}
330
4558
100
AcDbVisualStyle
  2
Gouraud
 70
     2
 71
     2
 72
     2
 73
     1
 90
        2
 40
-0.6
 41
30.0
 62
     5
 63
     7
 74
     0
 91
        4
 64
     7
 65
   257
 75
     1
175
     1
 42
1.0
 92
        0
 66
     7
 43
1.0
 76
     1
 77
     6
 78
     2
 67
     7
 79
     5
170
     0
171
     0
290
     0
174
     0
 93
       13
 44
0.0
173
     0
291
     1
 45
0.0
1001
ACAD
1000
AcDbSavedByObjectVersion
1070
     0
1000
AcDbSavedByObjectVersion
1070
     0
1000
AcDbSavedByObjectVersion
1070
     0
1000
AcDbSavedByObjectVersion
1070
     0
  0
VISUALSTYLE
  5
455C
102
{ACAD_REACTORS
330
4558
102
}
330
4558
100
AcDbVisualStyle
  2
GouraudWithEdges
 70
     3
 71
     2
 72
     2
 73
     1
 90
        2
 40
-0.6
 41
30.0
 62
     5
 63
     7
 74
     1
 91
        4
 64
     7
 65
   257
 75
     1
175
     1
 42
1.0
 92
        0
 66
   257
 43
1.0
 76
     1
 77
     6
 78
     2
 67
     7
 79
     5
170
     0
171
     0
290
     0
174
     0
 93
       13
 44
0.0
173
     0
291
     1
 45
0.0
1001
ACAD
1000
AcDbSavedByObjectVersion
1070
     0
1000
AcDbSavedByObjectVersion
1070
     0
1000
AcDbSavedByObjectVersion
1070
     0
1000
AcDbSavedByObjectVersion
1070
     0
  0
VISUALSTYLE
  5
4566
102
{ACAD_REACTORS
330
4558
102
}
330
4558
100
AcDbVisualStyle
  2
Linepattern
 70
    14
 71
     2
 72
     2
 73
     0
 90
        0
 40
-0.6
 41
-30.0
 62
     5
 63
     7
 74
     1
 91
        4
 64
     7
 65
   257
 75
     7
175
     7
 42
1.0
 92
        8
 66
     7
 43
1.0
 76
     1
 77
     6
 78
     2
 67
     7
 79
     5
170
     0
171
     0
290
     0
174
     0
 93
        1
 44
0.0
173
     0
291
     1
 45
0.0
1001
ACAD
1000
AcDbSavedByObjectVersion
1070
     0
1000
AcDbSavedByObjectVersion
1070
     0
1000
AcDbSavedByObjectVersion
1070
     0
1000
AcDbSavedByObjectVersion
1070
     0
  0
VISUALSTYLE
  5
4562
102
{ACAD_REACTORS
330
4558
102
}
330
4558
100
AcDbVisualStyle
  2
Realistic
 70
     8
 71
     2
 72
     2
 73
     0
 90
        0
 40
-0.6
 41
-30.0
 62
     5
 63
     7
 74
     1
 91
        0
 64
     7
 65
   257
 75
     1
175
     1
 42
1.0
 92
        8
 66
     8
 43
1.0
 76
     1
 77
     6
 78
     2
 67
     7
 79
     5
170
     0
171
     0
290
     0
174
     0
 93
       13
 44
0.0
173
     0
291
     0
 45
0.0
1001
ACAD
1000
AcDbSavedByObjectVersion
1070
     0
1000
AcDbSavedByObjectVersion
1070
     0
1000
AcDbSavedByObjectVersion
1070
     0
1000
AcDbSavedByObjectVersion
1070
     0
  0
VISUALSTYLE
  5
4565
102
{ACAD_REACTORS
330
4558
102
}
330
4558
100
AcDbVisualStyle
  2
Thicken
 70
    13
 71
     2
 72
     2
 73
     0
 90
        0
 40
-0.6
 41
-30.0
 62
     5
 63
     7
 74
     1
 91
        4
 64
     7
 65
   257
 75
     1
175
     1
 42
1.0
 92
       12
 66
     7
 43
1.0
 76
     1
 77
     6
 78
     2
 67
     7
 79
     5
170
     0
171
     0
290
     0
174
     0
 93
        1
 44
0.0
173
     0
291
     1
 45
0.0
1001
ACAD
1000
AcDbSavedByObjectVersion
1070
     0
1000
AcDbSavedByObjectVersion
1070
     0
1000
AcDbSavedByObjectVersion
1070
     0
1000
AcDbSavedByObjectVersion
1070
     0
  0
DICTIONARYVAR
  5
45A5
102
{ACAD_REACTORS
330
1BF
102
}
330
1BF
100
DictionaryVariables
280
     0
  1
1:1
  0
DICTIONARYVAR
  5
45A4
102
{ACAD_REACTORS
330
1BF
102
}
330
1BF
100
DictionaryVariables
280
     0
  1
STANDARD
  0
DICTIONARYVAR
  5
4532
102
{ACAD_REACTORS
330
1BF
102
}
330
1BF
100
DictionaryVariables
280
     0
  1
STANDARD
  0
DICTIONARYVAR
  5
4169
102
{ACAD_REACTORS
330
1BF
102
}
330
1BF
100
DictionaryVariables
280
     0
  1
1
  0
DICTIONARYVAR
  5
45A6
102
{ACAD_REACTORS
330
1BF
102
}
330
1BF
100
DictionaryVariables
280
     0
  1
0
  0
DICTIONARYVAR
  5
4533
102
{ACAD_REACTORS
330
1BF
102
}
330
1BF
100
DictionaryVariables
280
     0
  1

  0
DICTIONARYVAR
  5
1C0
102
{ACAD_REACTORS
330
1BF
102
}
330
1BF
100
DictionaryVariables
280
     0
  1
96
  0
XRECORD
  5
46DE
102
{ACAD_REACTORS
330
46DC
102
}
330
46DC
100
AcDbXrecord
280
     1
330
247E
  0
DICTIONARY
  5
4829
330
4157
100
AcDbDictionary
280
     1
281
     1
  3
ACAD_XREC_ROUNDTRIP
360
482A
  0
DICTIONARY
  5
482B
330
4158
100
AcDbDictionary
280
     1
281
     1
  3
ACAD_XREC_ROUNDTRIP
360
482C
  0
DICTIONARY
  5
4549
330
4548
100
AcDbDictionary
280
     1
281
     1
  3
ACAD_XREC_ROUNDTRIP
360
45B5
  3
BUMPTILE
360
454B
  3
DIFFUSETILE
360
454A
  3
OPACITYTILE
360
454E
  3
REFLECTIONTILE
360
454D
  3
REFRACTIONTILE
360
454F
  3
SPECULARTILE
360
454C
  0
DICTIONARY
  5
4541
330
4540
100
AcDbDictionary
280
     1
281
     1
  3
ACAD_XREC_ROUNDTRIP
360
45B4
  3
BUMPTILE
360
4543
  3
DIFFUSETILE
360
4542
  3
OPACITYTILE
360
4546
  3
REFLECTIONTILE
360
4545
  3
REFRACTIONTILE
360
4547
  3
SPECULARTILE
360
4544
  0
DICTIONARY
  5
4551
330
4550
100
AcDbDictionary
280
     1
281
     1
  3
ACAD_XREC_ROUNDTRIP
360
45B6
  3
BUMPTILE
360
4553
  3
DIFFUSETILE
360
4552
  3
OPACITYTILE
360
4556
  3
REFLECTIONTILE
360
4555
  3
REFRACTIONTILE
360
4557
  3
SPECULARTILE
360
4554
  0
DICTIONARY
  5
45A7
330
451E
100
AcDbDictionary
280
     1
281
     1
  3
ACAD_ROUNDTRIP_2008_TABLESTYLE_CELLSTYLEMAP
360
4827
  3
ACAD_XREC_ROUNDTRIP
360
482D
  0
XRECORD
  5
482A
102
{ACAD_REACTORS
330
4829
102
}
330
4829
100
AcDbXrecord
280
     1
102
SHADEPLOT
 70
     0
102
SHADEPLOTRESLEVEL
 70
     2
102
SHADEPLOTCUSTOMDPI
 70
   300
  0
XRECORD
  5
482C
102
{ACAD_REACTORS
330
482B
102
}
330
482B
100
AcDbXrecord
280
     1
102
SHADEPLOT
 70
     0
102
SHADEPLOTRESLEVEL
 70
     2
102
SHADEPLOTCUSTOMDPI
 70
   300
  0
XRECORD
  5
45B5
102
{ACAD_REACTORS
330
4549
102
}
330
4549
100
AcDbXrecord
280
     1
102
MATERIAL
148
0.0
149
0.0
149
0.0
 93
        0
 94
      127
282
     0
 72
     0
 77
     0
171
     0
175
     0
179
     0
273
     0
  0
XRECORD
  5
454B
102
{ACAD_REACTORS
330
4549
102
}
330
4549
100
AcDbXrecord
280
     1
270
     1
271
     1
  0
XRECORD
  5
454A
102
{ACAD_REACTORS
330
4549
102
}
330
4549
100
AcDbXrecord
280
     1
270
     1
271
     1
  0
XRECORD
  5
454E
102
{ACAD_REACTORS
330
4549
102
}
330
4549
100
AcDbXrecord
280
     1
270
     1
271
     1
  0
XRECORD
  5
454D
102
{ACAD_REACTORS
330
4549
102
}
330
4549
100
AcDbXrecord
280
     1
270
     1
271
     1
  0
XRECORD
  5
454F
102
{ACAD_REACTORS
330
4549
102
}
330
4549
100
AcDbXrecord
280
     1
270
     1
271
     1
  0
XRECORD
  5
454C
102
{ACAD_REACTORS
330
4549
102
}
330
4549
100
AcDbXrecord
280
     1
270
     1
271
     1
  0
XRECORD
  5
45B4
102
{ACAD_REACTORS
330
4541
102
}
330
4541
100
AcDbXrecord
280
     1
102
MATERIAL
148
0.0
149
0.0
149
0.0
 93
        0
 94
      127
282
     0
 72
     0
 77
     0
171
     0
175
     0
179
     0
273
     0
  0
XRECORD
  5
4543
102
{ACAD_REACTORS
330
4541
102
}
330
4541
100
AcDbXrecord
280
     1
270
     1
271
     1
  0
XRECORD
  5
4542
102
{ACAD_REACTORS
330
4541
102
}
330
4541
100
AcDbXrecord
280
     1
270
     1
271
     1
  0
XRECORD
  5
4546
102
{ACAD_REACTORS
330
4541
102
}
330
4541
100
AcDbXrecord
280
     1
270
     1
271
     1
  0
XRECORD
  5
4545
102
{ACAD_REACTORS
330
4541
102
}
330
4541
100
AcDbXrecord
280
     1
270
     1
271
     1
  0
XRECORD
  5
4547
102
{ACAD_REACTORS
330
4541
102
}
330
4541
100
AcDbXrecord
280
     1
270
     1
271
     1
  0
XRECORD
  5
4544
102
{ACAD_REACTORS
330
4541
102
}
330
4541
100
AcDbXrecord
280
     1
270
     1
271
     1
  0
XRECORD
  5
45B6
102
{ACAD_REACTORS
330
4551
102
}
330
4551
100
AcDbXrecord
280
     1
102
MATERIAL
148
0.0
149
0.0
149
0.0
 93
        0
 94
      127
282
     0
 72
     0
 77
     0
171
     0
175
     0
179
     0
273
     0
  0
XRECORD
  5
4553
102
{ACAD_REACTORS
330
4551
102
}
330
4551
100
AcDbXrecord
280
     1
270
     1
271
     1
  0
XRECORD
  5
4552
102
{ACAD_REACTORS
330
4551
102
}
330
4551
100
AcDbXrecord
280
     1
270
     1
271
     1
  0
XRECORD
  5
4556
102
{ACAD_REACTORS
330
4551
102
}
330
4551
100
AcDbXrecord
280
     1
270
     1
271
     1
  0
XRECORD
  5
4555
102
{ACAD_REACTORS
330
4551
102
}
330
4551
100
AcDbXrecord
280
     1
270
     1
271
     1
  0
XRECORD
  5
4557
102
{ACAD_REACTORS
330
4551
102
}
330
4551
100
AcDbXrecord
280
     1
270
     1
271
     1
  0
XRECORD
  5
4554
102
{ACAD_REACTORS
330
4551
102
}
330
4551
100
AcDbXrecord
280
     1
270
     1
271
     1
  0
CELLSTYLEMAP
  5
4827
102
{ACAD_REACTORS
330
45A7
102
}
330
45A7
100
AcDbCellStyleMap
 90
        3
300
CELLSTYLE
  1
TABLEFORMAT_BEGIN
 90
        5
170
     1
 91
        0
 92
    32768
 62
   257
 93
        1
300
CONTENTFORMAT
  1
CONTENTFORMAT_BEGIN
 90
        0
 91
        0
 92
        4
 93
        0
300

 40
0.0
140
1.0
 94
        5
 62
     0
340
10
144
0.25
309
CONTENTFORMAT_END
171
     1
301
MARGIN
  1
CELLMARGIN_BEGIN
 40
0.06
 40
0.06
 40
0.06
 40
0.06
 40
0.18
 40
0.18
309
CELLMARGIN_END
 94
        6
 95
        1
302
GRIDFORMAT
  1
GRIDFORMAT_BEGIN
 90
        0
 91
        1
 62
     0
 92
       -2
340
0
 93
        0
 40
0.045
309
GRIDFORMAT_END
 95
        2
302
GRIDFORMAT
  1
GRIDFORMAT_BEGIN
 90
        0
 91
        1
 62
     0
 92
       -2
340
0
 93
        0
 40
0.045
309
GRIDFORMAT_END
 95
        4
302
GRIDFORMAT
  1
GRIDFORMAT_BEGIN
 90
        0
 91
        1
 62
     0
 92
       -2
340
0
 93
        0
 40
0.045
309
GRIDFORMAT_END
 95
        8
302
GRIDFORMAT
  1
GRIDFORMAT_BEGIN
 90
        0
 91
        1
 62
     0
 92
       -2
340
0
 93
        0
 40
0.045
309
GRIDFORMAT_END
 95
       16
302
GRIDFORMAT
  1
GRIDFORMAT_BEGIN
 90
        0
 91
        1
 62
     0
 92
       -2
340
0
 93
        0
 40
0.045
309
GRIDFORMAT_END
 95
       32
302
GRIDFORMAT
  1
GRIDFORMAT_BEGIN
 90
        0
 91
        1
 62
     0
 92
       -2
340
0
 93
        0
 40
0.045
309
GRIDFORMAT_END
309
TABLEFORMAT_END
  1
CELLSTYLE_BEGIN
 90
        1
 91
        1
300
_TITLE
309
CELLSTYLE_END
300
CELLSTYLE
  1
TABLEFORMAT_BEGIN
 90
        5
170
     1
 91
        0
 92
        0
 62
   257
 93
        1
300
CONTENTFORMAT
  1
CONTENTFORMAT_BEGIN
 90
        0
 91
        0
 92
        4
 93
        0
300

 40
0.0
140
1.0
 94
        5
 62
     0
340
10
144
0.18
309
CONTENTFORMAT_END
171
     1
301
MARGIN
  1
CELLMARGIN_BEGIN
 40
0.06
 40
0.06
 40
0.06
 40
0.06
 40
0.18
 40
0.18
309
CELLMARGIN_END
 94
        6
 95
        1
302
GRIDFORMAT
  1
GRIDFORMAT_BEGIN
 90
        0
 91
        1
 62
     0
 92
       -2
340
0
 93
        0
 40
0.045
309
GRIDFORMAT_END
 95
        2
302
GRIDFORMAT
  1
GRIDFORMAT_BEGIN
 90
        0
 91
        1
 62
     0
 92
       -2
340
0
 93
        0
 40
0.045
309
GRIDFORMAT_END
 95
        4
302
GRIDFORMAT
  1
GRIDFORMAT_BEGIN
 90
        0
 91
        1
 62
     0
 92
       -2
340
0
 93
        0
 40
0.045
309
GRIDFORMAT_END
 95
        8
302
GRIDFORMAT
  1
GRIDFORMAT_BEGIN
 90
        0
 91
        1
 62
     0
 92
       -2
340
0
 93
        0
 40
0.045
309
GRIDFORMAT_END
 95
       16
302
GRIDFORMAT
  1
GRIDFORMAT_BEGIN
 90
        0
 91
        1
 62
     0
 92
       -2
340
0
 93
        0
 40
0.045
309
GRIDFORMAT_END
 95
       32
302
GRIDFORMAT
  1
GRIDFORMAT_BEGIN
 90
        0
 91
        1
 62
     0
 92
       -2
340
0
 93
        0
 40
0.045
309
GRIDFORMAT_END
309
TABLEFORMAT_END
  1
CELLSTYLE_BEGIN
 90
        2
 91
        1
300
_HEADER
309
CELLSTYLE_END
300
CELLSTYLE
  1
TABLEFORMAT_BEGIN
 90
        5
170
     1
 91
        0
 92
        0
 62
   257
 93
        1
300
CONTENTFORMAT
  1
CONTENTFORMAT_BEGIN
 90
        0
 91
        0
 92
        4
 93
        0
300

 40
0.0
140
1.0
 94
        2
 62
     0
340
10
144
0.18
309
CONTENTFORMAT_END
171
     1
301
MARGIN
  1
CELLMARGIN_BEGIN
 40
0.06
 40
0.06
 40
0.06
 40
0.06
 40
0.18
 40
0.18
309
CELLMARGIN_END
 94
        6
 95
        1
302
GRIDFORMAT
  1
GRIDFORMAT_BEGIN
 90
        0
 91
        1
 62
     0
 92
       -2
340
0
 93
        0
 40
0.045
309
GRIDFORMAT_END
 95
        2
302
GRIDFORMAT
  1
GRIDFORMAT_BEGIN
 90
        0
 91
        1
 62
     0
 92
       -2
340
0
 93
        0
 40
0.045
309
GRIDFORMAT_END
 95
        4
302
GRIDFORMAT
  1
GRIDFORMAT_BEGIN
 90
        0
 91
        1
 62
     0
 92
       -2
340
0
 93
        0
 40
0.045
309
GRIDFORMAT_END
 95
        8
302
GRIDFORMAT
  1
GRIDFORMAT_BEGIN
 90
        0
 91
        1
 62
     0
 92
       -2
340
0
 93
        0
 40
0.045
309
GRIDFORMAT_END
 95
       16
302
GRIDFORMAT
  1
GRIDFORMAT_BEGIN
 90
        0
 91
        1
 62
     0
 92
       -2
340
0
 93
        0
 40
0.045
309
GRIDFORMAT_END
 95
       32
302
GRIDFORMAT
  1
GRIDFORMAT_BEGIN
 90
        0
 91
        1
 62
     0
 92
       -2
340
0
 93
        0
 40
0.045
309
GRIDFORMAT_END
309
TABLEFORMAT_END
  1
CELLSTYLE_BEGIN
 90
        3
 91
        2
300
_DATA
309
CELLSTYLE_END
  0
XRECORD
  5
482D
102
{ACAD_REACTORS
330
45A7
102
}
330
45A7
100
AcDbXrecord
280
     1
102
ACAD_ROUNDTRIP_PRE2007_TABLESTYLE
 90
        4
 91
        0
  1

 92
        4
 93
        0
  2

 94
        4
 95
        0
  3

  0
ENDSEC
  0
EOF
