  0
SECTION
  2
HEADER
  9
$ACADVER
  1
AC1015
  9
$ACADMAINTVER
 70
    20
  9
$DWGCODEPAGE
  3
ANSI_949
  9
$INSBASE
 10
0.0
 20
0.0
 30
0.0
  9
$EXTMIN
 10
7.130967561973105
 20
1.123780227351931
 30
0.0
  9
$EXTMAX
 10
386.0613767965467
 20
195.895095122497
 30
0.0
  9
$LIMMIN
 10
0.0
 20
0.0
  9
$LIMMAX
 10
420.0
 20
297.0
  9
$ORTHOMODE
 70
     0
  9
$REGENMODE
 70
     1
  9
$FILLMODE
 70
     1
  9
$QTEXTMODE
 70
     0
  9
$MIRRTEXT
 70
     1
  9
$LTSCALE
 40
10.0
  9
$ATTMODE
 70
     1
  9
$TEXTSIZE
 40
3.149999999999999
  9
$TRACEWID
 40
0.05
  9
$TEXTSTYLE
  7
H
  9
$CLAYER
  8
0
  9
$CELTYPE
  6
BYLAYER
  9
$CECOLOR
 62
   256
  9
$CELTSCALE
 40
1.0
  9
$DISPSILH
 70
     0
  9
$DIMSCALE
 40
1.5
  9
$DIMASZ
 40
2.5
  9
$DIMEXO
 40
0.8
  9
$DIMDLI
 40
0.8
  9
$DIMRND
 40
0.0
  9
$DIMDLE
 40
0.0
  9
$DIMEXE
 40
0.8
  9
$DIMTP
 40
0.0
  9
$DIMTM
 40
0.0
  9
$DIMTXT
 40
3.0
  9
$DIMCEN
 40
-1.0
  9
$DIMTSZ
 40
0.0
  9
$DIMTOL
 70
     0
  9
$DIMLIM
 70
     0
  9
$DIMTIH
 70
     0
  9
$DIMTOH
 70
     0
  9
$DIMSE1
 70
     0
  9
$DIMSE2
 70
     0
  9
$DIMTAD
 70
     3
  9
$DIMZIN
 70
     8
  9
$DIMBLK
  1

  9
$DIMASO
 70
     1
  9
$DIMSHO
 70
     1
  9
$DIMPOST
  1

  9
$DIMAPOST
  1

  9
$DIMALT
 70
     0
  9
$DIMALTD
 70
     2
  9
$DIMALTF
 40
25.4
  9
$DIMLFAC
 40
1.0
  9
$DIMTOFL
 70
     1
  9
$DIMTVP
 40
0.0
  9
$DIMTIX
 70
     0
  9
$DIMSOXD
 70
     0
  9
$DIMSAH
 70
     0
  9
$DIMBLK1
  1

  9
$DIMBLK2
  1

  9
$DIMSTYLE
  2
STANDARD
  9
$DIMCLRD
 70
   115
  9
$DIMCLRE
 70
   115
  9
$DIMCLRT
 70
     7
  9
$DIMTFAC
 40
1.0
  9
$DIMGAP
 40
1.0
  9
$DIMJUST
 70
     0
  9
$DIMSD1
 70
     0
  9
$DIMSD2
 70
     0
  9
$DIMTOLJ
 70
     1
  9
$DIMTZIN
 70
     0
  9
$DIMALTZ
 70
     0
  9
$DIMALTTZ
 70
     0
  9
$DIMUPT
 70
     0
  9
$DIMDEC
 70
     3
  9
$DIMTDEC
 70
     4
  9
$DIMALTU
 70
     2
  9
$DIMALTTD
 70
     2
  9
$DIMTXSTY
  7
STANDARD
  9
$DIMAUNIT
 70
     0
  9
$DIMADEC
 70
     0
  9
$DIMALTRND
 40
0.0
  9
$DIMAZIN
 70
     0
  9
$DIMDSEP
 70
    46
  9
$DIMATFIT
 70
     3
  9
$DIMFRAC
 70
     0
  9
$DIMLDRBLK
  1

  9
$DIMLUNIT
 70
     2
  9
$DIMLWD
 70
    -2
  9
$DIMLWE
 70
    -2
  9
$DIMTMOVE
 70
     0
  9
$LUNITS
 70
     2
  9
$LUPREC
 70
     4
  9
$SKETCHINC
 40
0.1
  9
$FILLETRAD
 40
0.5
  9
$AUNITS
 70
     0
  9
$AUPREC
 70
     0
  9
$MENU
  1
.
  9
$ELEVATION
 40
0.0
  9
$PELEVATION
 40
0.0
  9
$THICKNESS
 40
0.0
  9
$LIMCHECK
 70
     0
  9
$CHAMFERA
 40
0.5
  9
$CHAMFERB
 40
0.5
  9
$CHAMFERC
 40
1.0
  9
$CHAMFERD
 40
0.0
  9
$SKPOLY
 70
     1
  9
$TDCREATE
 40
2452464.575009942
  9
$TDUCREATE
 40
2452464.200009942
  9
$TDUPDATE
 40
2455643.493881261
  9
$TDUUPDATE
 40
2455643.118881261
  9
$TDINDWG
 40
0.2411662616
  9
$TDUSRTIMER
 40
0.2411660880
  9
$USRTIMER
 70
     1
  9
$ANGBASE
 50
0.0
  9
$ANGDIR
 70
     0
  9
$PDMODE
 70
     0
  9
$PDSIZE
 40
0.0
  9
$PLINEWID
 40
0.5
  9
$SPLFRAME
 70
     0
  9
$SPLINETYPE
 70
     6
  9
$SPLINESEGS
 70
     8
  9
$HANDSEED
  5
431B
  9
$SURFTAB1
 70
     6
  9
$SURFTAB2
 70
     6
  9
$SURFTYPE
 70
     6
  9
$SURFU
 70
     6
  9
$SURFV
 70
     6
  9
$UCSBASE
  2

  9
$UCSNAME
  2

  9
$UCSORG
 10
0.0
 20
0.0
 30
0.0
  9
$UCSXDIR
 10
1.0
 20
0.0
 30
0.0
  9
$UCSYDIR
 10
0.0
 20
1.0
 30
0.0
  9
$UCSORTHOREF
  2

  9
$UCSORTHOVIEW
 70
     0
  9
$UCSORGTOP
 10
0.0
 20
0.0
 30
0.0
  9
$UCSORGBOTTOM
 10
0.0
 20
0.0
 30
0.0
  9
$UCSORGLEFT
 10
0.0
 20
0.0
 30
0.0
  9
$UCSORGRIGHT
 10
0.0
 20
0.0
 30
0.0
  9
$UCSORGFRONT
 10
0.0
 20
0.0
 30
0.0
  9
$UCSORGBACK
 10
0.0
 20
0.0
 30
0.0
  9
$PUCSBASE
  2

  9
$PUCSNAME
  2

  9
$PUCSORG
 10
0.0
 20
0.0
 30
0.0
  9
$PUCSXDIR
 10
1.0
 20
0.0
 30
0.0
  9
$PUCSYDIR
 10
0.0
 20
1.0
 30
0.0
  9
$PUCSORTHOREF
  2

  9
$PUCSORTHOVIEW
 70
     0
  9
$PUCSORGTOP
 10
0.0
 20
0.0
 30
0.0
  9
$PUCSORGBOTTOM
 10
0.0
 20
0.0
 30
0.0
  9
$PUCSORGLEFT
 10
0.0
 20
0.0
 30
0.0
  9
$PUCSORGRIGHT
 10
0.0
 20
0.0
 30
0.0
  9
$PUCSORGFRONT
 10
0.0
 20
0.0
 30
0.0
  9
$PUCSORGBACK
 10
0.0
 20
0.0
 30
0.0
  9
$USERI1
 70
     0
  9
$USERI2
 70
   452
  9
$USERI3
 70
     1
  9
$USERI4
 70
     0
  9
$USERI5
 70
     0
  9
$USERR1
 40
0.0
  9
$USERR2
 40
0.0
  9
$USERR3
 40
0.0
  9
$USERR4
 40
0.0
  9
$USERR5
 40
0.0
  9
$WORLDVIEW
 70
     1
  9
$SHADEDGE
 70
     3
  9
$SHADEDIF
 70
    70
  9
$TILEMODE
 70
     1
  9
$MAXACTVP
 70
    48
  9
$PINSBASE
 10
0.0
 20
0.0
 30
0.0
  9
$PLIMCHECK
 70
     0
  9
$PEXTMIN
 10
1.000000000000000E+20
 20
1.000000000000000E+20
 30
1.000000000000000E+20
  9
$PEXTMAX
 10
-1.000000000000000E+20
 20
-1.000000000000000E+20
 30
-1.000000000000000E+20
  9
$PLIMMIN
 10
0.0
 20
0.0
  9
$PLIMMAX
 10
12.0
 20
9.0
  9
$UNITMODE
 70
     0
  9
$VISRETAIN
 70
     1
  9
$PLINEGEN
 70
     0
  9
$PSLTSCALE
 70
     1
  9
$TREEDEPTH
 70
  3020
  9
$CMLSTYLE
  2
STANDARD
  9
$CMLJUST
 70
     0
  9
$CMLSCALE
 40
1.0
  9
$PROXYGRAPHICS
 70
     1
  9
$MEASUREMENT
 70
     0
  9
$CELWEIGHT
370
    -1
  9
$ENDCAPS
280
     0
  9
$JOINSTYLE
280
     0
  9
$LWDISPLAY
290
     0
  9
$INSUNITS
 70
     0
  9
$HYPERLINKBASE
  1

  9
$STYLESHEET
  1
1.CTB
  9
$XEDIT
290
     1
  9
$CEPSNTYPE
380
     0
  9
$PSTYLEMODE
290
     1
  9
$FINGERPRINTGUID
  2
{3172CC46-24FC-4775-9257-50F4EA4939B8}
  9
$VERSIONGUID
  2
{84CC0FEA-04FE-4C46-AB69-2FE9C31815CF}
  9
$EXTNAMES
290
     1
  9
$PSVPSCALE
 40
0.0
  9
$OLESTARTUP
290
     0
  0
ENDSEC
  0
SECTION
  2
CLASSES
  0
CLASS
  1
DICTIONARYVAR
  2
AcDbDictionaryVar
  3
ObjectDBX Classes
 90
        0
280
     0
281
     0
  0
CLASS
  1
ACDBDICTIONARYWDFLT
  2
AcDbDictionaryWithDefault
  3
ObjectDBX Classes
 90
        0
280
     0
281
     0
  0
CLASS
  1
ACDBPLACEHOLDER
  2
AcDbPlaceHolder
  3
ObjectDBX Classes
 90
        0
280
     0
281
     0
  0
CLASS
  1
LAYOUT
  2
AcDbLayout
  3
ObjectDBX Classes
 90
        0
280
     0
281
     0
  0
CLASS
  1
TABLESTYLE
  2
AcDbTableStyle
  3
ObjectDBX Classes
 90
     4095
280
     0
281
     0
  0
CLASS
  1
MATERIAL
  2
AcDbMaterial
  3
ObjectDBX Classes
 90
     1153
280
     0
281
     0
  0
CLASS
  1
VISUALSTYLE
  2
AcDbVisualStyle
  3
ObjectDBX Classes
 90
     4095
280
     0
281
     0
  0
CLASS
  1
SCALE
  2
AcDbScale
  3
ObjectDBX Classes
 90
     1153
280
     0
281
     0
  0
CLASS
  1
MLEADERSTYLE
  2
AcDbMLeaderStyle
  3
ACDB_MLEADERSTYLE_CLASS
 90
     4095
280
     0
281
     0
  0
CLASS
  1
CELLSTYLEMAP
  2
AcDbCellStyleMap
  3
ObjectDBX Classes
 90
     1152
280
     0
281
     0
  0
ENDSEC
  0
SECTION
  2
TABLES
  0
TABLE
  2
VPORT
  5
8
330
0
100
AcDbSymbolTable
 70
     1
  0
VPORT
  5
4298
330
8
100
AcDbSymbolTableRecord
100
AcDbViewportTableRecord
  2
*Active
 70
     0
 10
0.0
 20
0.0
 11
1.0
 21
1.0
 12
234.6336223868818
 22
128.4782201860669
 13
0.0
 23
0.0
 14
0.5
 24
0.5
 15
0.5
 25
0.5
 16
0.0
 26
0.0
 36
1.0
 17
0.0
 27
0.0
 37
0.0
 40
175.6409147646099
 41
2.336349924585218
 42
50.0
 43
0.0
 44
0.0
 50
0.0
 51
0.0
 71
     0
 72
   100
 73
     1
 74
     1
 75
     0
 76
     0
 77
     0
 78
     0
281
     0
 65
     1
110
0.0
120
0.0
130
0.0
111
1.0
121
0.0
131
0.0
112
0.0
122
1.0
132
0.0
 79
     0
146
0.0
  0
ENDTAB
  0
TABLE
  2
LTYPE
  5
5
330
0
100
AcDbSymbolTable
 70
     9
  0
LTYPE
  5
13
330
5
100
AcDbSymbolTableRecord
100
AcDbLinetypeTableRecord
  2
BYBLOCK
 70
     0
  3

 72
    65
 73
     0
 40
0.0
  0
LTYPE
  5
14
330
5
100
AcDbSymbolTableRecord
100
AcDbLinetypeTableRecord
  2
BYLAYER
 70
     0
  3

 72
    65
 73
     0
 40
0.0
  0
LTYPE
  5
15
330
5
100
AcDbSymbolTableRecord
100
AcDbLinetypeTableRecord
  2
CONTINUOUS
 70
     0
  3
Solid line
 72
    65
 73
     0
 40
0.0
  0
LTYPE
  5
5D
330
5
100
AcDbSymbolTableRecord
100
AcDbLinetypeTableRecord
  2
CENTER
 70
     0
  3
Center ____ _ ____ _ ____ _ ____ _ ____ _ ____
 72
    65
 73
     4
 40
2.0
 49
1.25
 74
     0
 49
-0.25
 74
     0
 49
0.25
 74
     0
 49
-0.25
 74
     0
  0
LTYPE
  5
5E
330
5
100
AcDbSymbolTableRecord
100
AcDbLinetypeTableRecord
  2
HIDDEN
 70
     0
  3
Hidden __ __ __ __ __ __ __ __ __ __ __ __ __ _
 72
    65
 73
     2
 40
0.375
 49
0.25
 74
     0
 49
-0.125
 74
     0
  0
LTYPE
  5
2ACA
330
5
100
AcDbSymbolTableRecord
100
AcDbLinetypeTableRecord
  2
2
 70
     0
  3
MEDUSA PEN 2
 72
    65
 73
     4
 40
15.1
 49
9.5
 74
     0
 49
-1.6
 74
     0
 49
2.399999999999999
 74
     0
 49
-1.6
 74
     0
  0
ENDTAB
  0
TABLE
  2
LAYER
  5
2
330
0
100
AcDbSymbolTable
 70
    37
  0
LAYER
  5
F
102
{ACAD_XDICTIONARY
360
42FE
102
}
330
2
100
AcDbSymbolTableRecord
100
AcDbLayerTableRecord
  2
0
 70
     0
 62
     7
  6
CONTINUOUS
370
    -3
390
4154
  0
LAYER
  5
55
102
{ACAD_XDICTIONARY
360
4300
102
}
330
2
100
AcDbSymbolTableRecord
100
AcDbLayerTableRecord
  2
9
 70
     0
 62
     3
  6
CONTINUOUS
370
    -3
390
4154
  0
LAYER
  5
61
102
{ACAD_XDICTIONARY
360
4302
102
}
330
2
100
AcDbSymbolTableRecord
100
AcDbLayerTableRecord
  2
1
 70
     0
 62
     1
  6
CENTER
370
    -3
390
4154
  0
LAYER
  5
62
102
{ACAD_XDICTIONARY
360
4304
102
}
330
2
100
AcDbSymbolTableRecord
100
AcDbLayerTableRecord
  2
2
 70
     0
 62
     2
  6
HIDDEN
370
    -3
390
4154
  0
LAYER
  5
24EF
330
2
100
AcDbSymbolTableRecord
100
AcDbLayerTableRecord
  2
DEFPOINTS
 70
     0
 62
     7
  6
CONTINUOUS
290
     0
370
    -3
390
4154
  0
LAYER
  5
2AD3
102
{ACAD_XDICTIONARY
360
4306
102
}
330
2
100
AcDbSymbolTableRecord
100
AcDbLayerTableRecord
  2
SL2-11
 70
     0
 62
     1
  6
2
370
    -3
390
4154
  0
ENDTAB
  0
TABLE
  2
STYLE
  5
3
330
0
100
AcDbSymbolTable
 70
     7
  0
STYLE
  5
10
330
3
100
AcDbSymbolTableRecord
100
AcDbTextStyleTableRecord
  2
STANDARD
 70
     0
 40
0.0
 41
1.0
 50
0.0
 71
     0
 42
3.0
  3
romans.shx
  4

  0
STYLE
  5
167
330
3
100
AcDbSymbolTableRecord
100
AcDbTextStyleTableRecord
  2
STYLE1
 70
     0
 40
0.0
 41
1.0
 50
0.0
 71
     0
 42
3.149999999999999
  3
Gulim.ttf
  4

1001
ACAD
1000
Gulim
1071
    33074
  0
STYLE
  5
2AD7
330
3
100
AcDbSymbolTableRecord
100
AcDbTextStyleTableRecord
  2
T2
 70
     0
 40
0.0
 41
1.0
 50
0.1
 71
     0
 42
3.5
  3
monotxt
  4

  0
STYLE
  5
4295
330
3
100
AcDbSymbolTableRecord
100
AcDbTextStyleTableRecord
  2
H
 70
     0
 40
0.0
 41
1.0
 50
0.0
 71
     0
 42
3.149999999999999
  3
txt.shx
  4

  0
ENDTAB
  0
TABLE
  2
VIEW
  5
6
330
0
100
AcDbSymbolTable
 70
     0
  0
ENDTAB
  0
TABLE
  2
UCS
  5
7
330
0
100
AcDbSymbolTable
 70
     0
  0
ENDTAB
  0
TABLE
  2
APPID
  5
9
330
0
100
AcDbSymbolTable
 70
     4
  0
APPID
  5
11
330
9
100
AcDbSymbolTableRecord
100
AcDbRegAppTableRecord
  2
ACAD
 70
     0
  0
APPID
  5
2325
330
9
100
AcDbSymbolTableRecord
100
AcDbRegAppTableRecord
  2
MCLBOMATTRIB
 70
     0
  0
APPID
  5
2326
330
9
100
AcDbSymbolTableRecord
100
AcDbRegAppTableRecord
  2
MCLBOM
 70
     0
  0
APPID
  5
42F1
330
9
100
AcDbSymbolTableRecord
100
AcDbRegAppTableRecord
  2
ACAD_MLEADERVER
 70
     0
  0
ENDTAB
  0
TABLE
  2
DIMSTYLE
  5
A
330
0
100
AcDbSymbolTable
 70
     2
100
AcDbDimStyleTable
 71
     1
340
1D
  0
DIMSTYLE
105
1D
102
{ACAD_REACTORS
330
41CE
330
41DB
330
41E8
330
41F7
330
4204
330
4211
330
4220
330
4230
330
4261
102
}
330
A
100
AcDbSymbolTableRecord
100
AcDbDimStyleTableRecord
  2
STANDARD
 70
     0
 41
2.0
140
3.0
176
     2
177
     2
178
     4
340
10
  0
ENDTAB
  0
TABLE
  2
BLOCK_RECORD
  5
1
330
0
100
AcDbSymbolTable
 70
    38
  0
BLOCK_RECORD
  5
19
330
1
100
AcDbSymbolTableRecord
100
AcDbBlockTableRecord
  2
*MODEL_SPACE
340
4157
  0
BLOCK_RECORD
  5
16
330
1
100
AcDbSymbolTableRecord
100
AcDbBlockTableRecord
  2
*PAPER_SPACE
340
4158
  0
BLOCK_RECORD
  5
1B8B
330
1
100
AcDbSymbolTableRecord
100
AcDbBlockTableRecord
  2
MCLBOMATTRIB
340
0
102
{BLKREFS
331
247E
331
238D
102
}
  0
BLOCK_RECORD
  5
41CF
330
1
100
AcDbSymbolTableRecord
100
AcDbBlockTableRecord
  2
*D29
340
0
  0
BLOCK_RECORD
  5
41DC
330
1
100
AcDbSymbolTableRecord
100
AcDbBlockTableRecord
  2
*D30
340
0
  0
BLOCK_RECORD
  5
41E9
330
1
100
AcDbSymbolTableRecord
100
AcDbBlockTableRecord
  2
*D31
340
0
  0
BLOCK_RECORD
  5
41F8
330
1
100
AcDbSymbolTableRecord
100
AcDbBlockTableRecord
  2
*D32
340
0
  0
BLOCK_RECORD
  5
4205
330
1
100
AcDbSymbolTableRecord
100
AcDbBlockTableRecord
  2
*D33
340
0
  0
BLOCK_RECORD
  5
4212
330
1
100
AcDbSymbolTableRecord
100
AcDbBlockTableRecord
  2
*D34
340
0
  0
BLOCK_RECORD
  5
4221
330
1
100
AcDbSymbolTableRecord
100
AcDbBlockTableRecord
  2
*D35
340
0
  0
BLOCK_RECORD
  5
4231
330
1
100
AcDbSymbolTableRecord
100
AcDbBlockTableRecord
  2
*D36
340
0
  0
BLOCK_RECORD
  5
4262
330
1
100
AcDbSymbolTableRecord
100
AcDbBlockTableRecord
  2
*D37
340
0
  0
ENDTAB
  0
ENDSEC
  0
SECTION
  2
BLOCKS
  0
BLOCK
  5
1A
330
19
100
AcDbEntity
  8
0
100
AcDbBlockBegin
  2
*MODEL_SPACE
 70
     0
 10
0.0
 20
0.0
 30
0.0
  3
*MODEL_SPACE
  1

  0
ENDBLK
  5
1B
330
19
100
AcDbEntity
  8
0
100
AcDbBlockEnd
  0
BLOCK
  5
17
330
16
100
AcDbEntity
 67
     1
  8
0
100
AcDbBlockBegin
  2
*PAPER_SPACE
 70
     0
 10
0.0
 20
0.0
 30
0.0
  3
*PAPER_SPACE
  1

  0
ENDBLK
  5
18
330
16
100
AcDbEntity
 67
     1
  8
0
100
AcDbBlockEnd
  0
BLOCK
  5
1B8C
330
1B8B
100
AcDbEntity
  8
0
100
AcDbBlockBegin
  2
MCLBOMATTRIB
 70
     2
 10
0.0
 20
0.0
 30
0.0
  3
MCLBOMATTRIB
  1
MCLBOMATTRIB
  0
ENDBLK
  5
1B8D
330
1B8B
100
AcDbEntity
  8
0
100
AcDbBlockEnd
  0
BLOCK
  5
41D9
330
41CF
100
AcDbEntity
  8
0
100
AcDbBlockBegin
  2
*D29
 70
     1
 10
0.0
 20
0.0
 30
0.0
  3
*D29
  1

  0
LINE
  5
4273
330
41CF
100
AcDbEntity
  8
0
 62
   115
370
    -2
100
AcDbLine
 10
316.3272933649565
 20
127.9434262345638
 30
0.0
 11
329.5259235003958
 21
127.9434262345638
 31
0.0
  0
LINE
  5
4274
330
41CF
100
AcDbEntity
  8
0
 62
   115
370
    -2
100
AcDbLine
 10
316.3272933649563
 20
161.9434262345638
 30
0.0
 11
329.5259235003959
 21
161.9434262345637
 31
0.0
  0
LINE
  5
4275
330
41CF
100
AcDbEntity
  8
0
 62
   115
370
    -2
100
AcDbLine
 10
328.3259235003959
 20
131.6934262345638
 30
0.0
 11
328.3259235003959
 21
158.1934262345637
 31
0.0
  0
SOLID
  5
4276
330
41CF
100
AcDbEntity
  8
0
 62
   115
100
AcDbTrace
 10
327.7009235003959
 20
131.6934262345638
 30
0.0
 11
328.9509235003959
 21
131.6934262345638
 31
0.0
 12
328.3259235003959
 22
127.9434262345638
 32
0.0
 13
328.3259235003959
 23
127.9434262345638
 33
0.0
  0
SOLID
  5
4277
330
41CF
100
AcDbEntity
  8
0
 62
   115
100
AcDbTrace
 10
327.7009235003959
 20
158.1934262345637
 30
0.0
 11
328.9509235003959
 21
158.1934262345637
 31
0.0
 12
328.3259235003959
 22
161.9434262345637
 32
0.0
 13
328.3259235003959
 23
161.9434262345637
 33
0.0
  0
MTEXT
  5
4278
330
41CF
100
AcDbEntity
  8
0
 62
     7
100
AcDbMText
 10
324.5759235003959
 20
144.9434262345638
 30
0.0
 40
4.5
 41
0.0
 71
     5
 72
     1
  1
\A1;%%c34h7
 11
0.0000000000000001
 21
1.0
 31
0.0
 73
     1
 44
1.0
1001
ACAD
1000
MTEXTBEGIN
1070
    73
1070
     1
1070
    44
1040
1.0
1070
    74
1070
     0
1000
MTEXTEND
  0
POINT
  5
4279
330
41CF
100
AcDbEntity
  8
DEFPOINTS
 62
     0
100
AcDbPoint
 10
315.1272933649565
 20
127.9434262345638
 30
0.0
  0
POINT
  5
427A
330
41CF
100
AcDbEntity
  8
DEFPOINTS
 62
     0
100
AcDbPoint
 10
315.1272933649563
 20
161.9434262345638
 30
0.0
  0
POINT
  5
427B
330
41CF
100
AcDbEntity
  8
DEFPOINTS
 62
     0
100
AcDbPoint
 10
328.3259235003959
 20
161.9434262345637
 30
0.0
  0
ENDBLK
  5
41DA
330
41CF
100
AcDbEntity
  8
0
100
AcDbBlockEnd
  0
BLOCK
  5
41E6
330
41DC
100
AcDbEntity
  8
0
100
AcDbBlockBegin
  2
*D30
 70
     1
 10
0.0
 20
0.0
 30
0.0
  3
*D30
  1

  0
LINE
  5
41DD
330
41DC
100
AcDbEntity
  8
0
 62
   115
370
    -2
100
AcDbLine
 10
269.9272870649564
 20
117.9434262345638
 30
0.0
 11
260.7183341539276
 21
117.9434262345638
 31
0.0
  0
LINE
  5
41DE
330
41DC
100
AcDbEntity
  8
0
 62
   115
370
    -2
100
AcDbLine
 10
269.9272930649564
 20
171.9434262345638
 30
0.0
 11
260.7183341539276
 21
171.9434262345638
 31
0.0
  0
LINE
  5
41DF
330
41DC
100
AcDbEntity
  8
0
 62
   115
370
    -2
100
AcDbLine
 10
261.9183341539276
 20
121.6934262345638
 30
0.0
 11
261.9183341539276
 21
168.1934262345638
 31
0.0
  0
SOLID
  5
41E0
330
41DC
100
AcDbEntity
  8
0
 62
   115
100
AcDbTrace
 10
261.2933341539275
 20
121.6934262345638
 30
0.0
 11
262.5433341539276
 21
121.6934262345638
 31
0.0
 12
261.9183341539276
 22
117.9434262345638
 32
0.0
 13
261.9183341539276
 23
117.9434262345638
 33
0.0
  0
SOLID
  5
41E1
330
41DC
100
AcDbEntity
  8
0
 62
   115
100
AcDbTrace
 10
261.2933341539276
 20
168.1934262345638
 30
0.0
 11
262.5433341539276
 21
168.1934262345638
 31
0.0
 12
261.9183341539276
 22
171.9434262345638
 32
0.0
 13
261.9183341539276
 23
171.9434262345638
 33
0.0
  0
MTEXT
  5
41E2
330
41DC
100
AcDbEntity
  8
0
 62
     7
100
AcDbMText
 10
258.1683341539275
 20
144.9434262345638
 30
0.0
 40
4.5
 41
0.0
 71
     5
 72
     1
  1
\A1;%%c54
 11
0.0000000000000001
 21
1.0
 31
0.0
 73
     1
 44
1.0
1001
ACAD
1000
MTEXTBEGIN
1070
    73
1070
     1
1070
    44
1040
1.0
1070
    74
1070
     0
1000
MTEXTEND
  0
POINT
  5
41E3
330
41DC
100
AcDbEntity
  8
DEFPOINTS
 62
     0
100
AcDbPoint
 10
271.1272870649564
 20
117.9434262345638
 30
0.0
  0
POINT
  5
41E4
330
41DC
100
AcDbEntity
  8
DEFPOINTS
 62
     0
100
AcDbPoint
 10
271.1272930649563
 20
171.9434262345638
 30
0.0
  0
POINT
  5
41E5
330
41DC
100
AcDbEntity
  8
DEFPOINTS
 62
     0
100
AcDbPoint
 10
261.9183341539276
 20
171.9434262345638
 30
0.0
  0
ENDBLK
  5
41E7
330
41DC
100
AcDbEntity
  8
0
100
AcDbBlockEnd
  0
BLOCK
  5
41F5
330
41E9
100
AcDbEntity
  8
0
100
AcDbBlockBegin
  2
*D31
 70
     1
 10
0.0
 20
0.0
 30
0.0
  3
*D31
  1

  0
LINE
  5
41EA
330
41E9
100
AcDbEntity
  8
0
 62
   115
370
    -2
100
AcDbLine
 10
270.6272930649567
 20
117.2434262345638
 30
0.0
 11
270.6272930649567
 21
103.9558326167044
 31
0.0
  0
LINE
  5
41EB
330
41E9
100
AcDbEntity
  8
0
 62
   115
370
    -2
100
AcDbLine
 10
280.6272930649566
 20
117.2434262345638
 30
0.0
 11
280.6272930649566
 21
103.9558326167044
 31
0.0
  0
LINE
  5
41EC
330
41E9
100
AcDbEntity
  8
0
 62
   115
370
    -2
100
AcDbLine
 10
266.8772930649567
 20
105.1558326167044
 30
0.0
 11
263.1272930649567
 21
105.1558326167044
 31
0.0
  0
LINE
  5
41ED
330
41E9
100
AcDbEntity
  8
0
 62
   115
370
    -2
100
AcDbLine
 10
284.3772930649566
 20
105.1558326167044
 30
0.0
 11
288.1272930649566
 21
105.1558326167044
 31
0.0
  0
LINE
  5
41EE
330
41E9
100
AcDbEntity
  8
0
 62
   115
370
    -2
100
AcDbLine
 10
270.6272930649567
 20
105.1558326167044
 30
0.0
 11
280.6272930649566
 21
105.1558326167044
 31
0.0
  0
SOLID
  5
41EF
330
41E9
100
AcDbEntity
  8
0
 62
   115
100
AcDbTrace
 10
266.8772930649567
 20
105.7808326167044
 30
0.0
 11
266.8772930649567
 21
104.5308326167044
 31
0.0
 12
270.6272930649567
 22
105.1558326167044
 32
0.0
 13
270.6272930649567
 23
105.1558326167044
 33
0.0
  0
SOLID
  5
41F0
330
41E9
100
AcDbEntity
  8
0
 62
   115
100
AcDbTrace
 10
284.3772930649566
 20
105.7808326167044
 30
0.0
 11
284.3772930649566
 21
104.5308326167044
 31
0.0
 12
280.6272930649566
 22
105.1558326167044
 32
0.0
 13
280.6272930649566
 23
105.1558326167044
 33
0.0
  0
MTEXT
  5
41F1
330
41E9
100
AcDbEntity
  8
0
 62
     7
100
AcDbMText
 10
275.6272930649567
 20
108.9058326167044
 30
0.0
 40
4.5
 41
0.0
 71
     5
 72
     1
  1
\A1;10
 73
     1
 44
1.0
1001
ACAD
1000
MTEXTBEGIN
1070
    73
1070
     1
1070
    44
1040
1.0
1070
    74
1070
     0
1000
MTEXTEND
  0
POINT
  5
41F2
330
41E9
100
AcDbEntity
  8
DEFPOINTS
 62
     0
100
AcDbPoint
 10
270.6272930649567
 20
118.4434262345638
 30
0.0
  0
POINT
  5
41F3
330
41E9
100
AcDbEntity
  8
DEFPOINTS
 62
     0
100
AcDbPoint
 10
280.6272930649566
 20
118.4434262345638
 30
0.0
  0
POINT
  5
41F4
330
41E9
100
AcDbEntity
  8
DEFPOINTS
 62
     0
100
AcDbPoint
 10
280.6272930649566
 20
105.1558326167044
 30
0.0
  0
ENDBLK
  5
41F6
330
41E9
100
AcDbEntity
  8
0
100
AcDbBlockEnd
  0
BLOCK
  5
4202
330
41F8
100
AcDbEntity
  8
0
100
AcDbBlockBegin
  2
*D32
 70
     1
 10
0.0
 20
0.0
 30
0.0
  3
*D32
  1

  0
LINE
  5
41F9
330
41F8
100
AcDbEntity
  8
0
 62
   115
370
    -2
100
AcDbLine
 10
280.6272930649566
 20
117.2434262345638
 30
0.0
 11
280.6272930649566
 21
103.9558326167044
 31
0.0
  0
LINE
  5
41FA
330
41F8
100
AcDbEntity
  8
0
 62
   115
370
    -2
100
AcDbLine
 10
315.6272930649566
 20
127.2434259345639
 30
0.0
 11
315.6272930649566
 21
103.9558326167044
 31
0.0
  0
LINE
  5
41FB
330
41F8
100
AcDbEntity
  8
0
 62
   115
370
    -2
100
AcDbLine
 10
284.3772930649566
 20
105.1558326167044
 30
0.0
 11
311.8772930649566
 21
105.1558326167044
 31
0.0
  0
SOLID
  5
41FC
330
41F8
100
AcDbEntity
  8
0
 62
   115
100
AcDbTrace
 10
284.3772930649566
 20
105.7808326167044
 30
0.0
 11
284.3772930649566
 21
104.5308326167044
 31
0.0
 12
280.6272930649566
 22
105.1558326167044
 32
0.0
 13
280.6272930649566
 23
105.1558326167044
 33
0.0
  0
SOLID
  5
41FD
330
41F8
100
AcDbEntity
  8
0
 62
   115
100
AcDbTrace
 10
311.8772930649566
 20
105.7808326167044
 30
0.0
 11
311.8772930649566
 21
104.5308326167044
 31
0.0
 12
315.6272930649566
 22
105.1558326167044
 32
0.0
 13
315.6272930649566
 23
105.1558326167044
 33
0.0
  0
MTEXT
  5
41FE
330
41F8
100
AcDbEntity
  8
0
 62
     7
100
AcDbMText
 10
298.1272930649566
 20
108.9058326167044
 30
0.0
 40
4.5
 41
0.0
 71
     5
 72
     1
  1
\A1;35
 73
     1
 44
1.0
1001
ACAD
1000
MTEXTBEGIN
1070
    73
1070
     1
1070
    44
1040
1.0
1070
    74
1070
     0
1000
MTEXTEND
  0
POINT
  5
41FF
330
41F8
100
AcDbEntity
  8
DEFPOINTS
 62
     0
100
AcDbPoint
 10
280.6272930649566
 20
118.4434262345638
 30
0.0
  0
POINT
  5
4200
330
41F8
100
AcDbEntity
  8
DEFPOINTS
 62
     0
100
AcDbPoint
 10
315.6272930649566
 20
128.4434259345639
 30
0.0
  0
POINT
  5
4201
330
41F8
100
AcDbEntity
  8
DEFPOINTS
 62
     0
100
AcDbPoint
 10
315.6272930649566
 20
105.1558326167044
 30
0.0
  0
ENDBLK
  5
4203
330
41F8
100
AcDbEntity
  8
0
100
AcDbBlockEnd
  0
BLOCK
  5
420F
330
4205
100
AcDbEntity
  8
0
100
AcDbBlockBegin
  2
*D33
 70
     1
 10
0.0
 20
0.0
 30
0.0
  3
*D33
  1

  0
LINE
  5
4206
330
4205
100
AcDbEntity
  8
0
 62
   115
370
    -2
100
AcDbLine
 10
270.6272930649567
 20
117.2434262345638
 30
0.0
 11
270.6272930649567
 21
94.79349038034619
 31
0.0
  0
LINE
  5
4207
330
4205
100
AcDbEntity
  8
0
 62
   115
370
    -2
100
AcDbLine
 10
315.6272930649566
 20
127.2434259345639
 30
0.0
 11
315.6272930649566
 21
94.79349038034619
 31
0.0
  0
LINE
  5
4208
330
4205
100
AcDbEntity
  8
0
 62
   115
370
    -2
100
AcDbLine
 10
274.3772930649567
 20
95.9934903803462
 30
0.0
 11
311.8772930649566
 21
95.9934903803462
 31
0.0
  0
SOLID
  5
4209
330
4205
100
AcDbEntity
  8
0
 62
   115
100
AcDbTrace
 10
274.3772930649567
 20
96.6184903803462
 30
0.0
 11
274.3772930649567
 21
95.3684903803462
 31
0.0
 12
270.6272930649567
 22
95.9934903803462
 32
0.0
 13
270.6272930649567
 23
95.9934903803462
 33
0.0
  0
SOLID
  5
420A
330
4205
100
AcDbEntity
  8
0
 62
   115
100
AcDbTrace
 10
311.8772930649566
 20
96.6184903803462
 30
0.0
 11
311.8772930649566
 21
95.3684903803462
 31
0.0
 12
315.6272930649566
 22
95.9934903803462
 32
0.0
 13
315.6272930649566
 23
95.9934903803462
 33
0.0
  0
MTEXT
  5
420B
330
4205
100
AcDbEntity
  8
0
 62
     7
100
AcDbMText
 10
293.1272930649566
 20
99.7434903803462
 30
0.0
 40
4.5
 41
0.0
 71
     5
 72
     1
  1
\A1;45
 73
     1
 44
1.0
1001
ACAD
1000
MTEXTBEGIN
1070
    73
1070
     1
1070
    44
1040
1.0
1070
    74
1070
     0
1000
MTEXTEND
  0
POINT
  5
420C
330
4205
100
AcDbEntity
  8
DEFPOINTS
 62
     0
100
AcDbPoint
 10
270.6272930649567
 20
118.4434262345638
 30
0.0
  0
POINT
  5
420D
330
4205
100
AcDbEntity
  8
DEFPOINTS
 62
     0
100
AcDbPoint
 10
315.6272930649566
 20
128.4434259345639
 30
0.0
  0
POINT
  5
420E
330
4205
100
AcDbEntity
  8
DEFPOINTS
 62
     0
100
AcDbPoint
 10
315.6272930649566
 20
95.9934903803462
 30
0.0
  0
ENDBLK
  5
4210
330
4205
100
AcDbEntity
  8
0
100
AcDbBlockEnd
  0
BLOCK
  5
421E
330
4212
100
AcDbEntity
  8
0
100
AcDbBlockBegin
  2
*D34
 70
     1
 10
0.0
 20
0.0
 30
0.0
  3
*D34
  1

  0
LINE
  5
4248
330
4212
100
AcDbEntity
  8
0
 62
   115
370
    -2
100
AcDbLine
 10
116.5909135538232
 20
121.3875300518143
 30
0.0
 11
110.9374903202078
 21
111.5955152830206
 31
0.0
  0
LINE
  5
4249
330
4212
100
AcDbEntity
  8
0
 62
   115
370
    -2
100
AcDbLine
 10
143.7909202628829
 20
121.3875303249179
 30
0.0
 11
149.444343641233
 21
111.5955151545844
 31
0.0
  0
ARC
  5
424A
330
4212
100
AcDbEntity
  8
0
 62
   115
370
    -2
100
AcDbCircle
 10
130.1909170919493
 20
144.9434235340392
 30
0.0
 40
37.30684909432567
100
AcDbArc
 50
245.7616655609218
 51
294.2383340568685
  0
SOLID
  5
424B
330
4212
100
AcDbEntity
  8
0
 62
   115
100
AcDbTrace
 10
114.5903149887179
 20
110.3690478291816
 30
0.0
 11
115.1601183828231
 21
111.4816232612608
 31
0.0
 12
111.537490389533
 22
112.634745727537
 32
0.0
 13
111.537490389533
 23
112.634745727537
 33
0.0
  0
SOLID
  5
424C
330
4212
100
AcDbEntity
  8
0
 62
   115
100
AcDbTrace
 10
145.2217155778579
 20
111.4816231609931
 30
0.0
 11
145.7915189645414
 21
110.3690477251129
 31
0.0
 12
148.8443435788403
 22
112.6347456031034
 32
0.0
 13
148.8443435788403
 23
112.6347456031034
 33
0.0
  0
MTEXT
  5
424D
102
{ACAD_XDICTIONARY
360
4315
102
}
330
4212
100
AcDbEntity
  8
0
 62
     7
100
AcDbMText
 10
129.8479421411479
 20
111.3883272098969
 30
0.0
 40
4.5
 41
0.0
 71
     5
 72
     1
  1
\A1;60\U+00B0
 11
0.9999477671405191
 21
-0.0102207138053181
 31
0.0
 73
     1
 44
1.0
1001
ACAD
1000
MTEXTBEGIN
1070
    73
1070
     1
1070
    44
1040
1.0
1070
    74
1070
     0
1000
MTEXTEND
  0
POINT
  5
424E
330
4212
100
AcDbEntity
  8
DEFPOINTS
 62
     0
100
AcDbPoint
 10
136.6691841052378
 20
108.2033494207317
 30
0.0
  0
POINT
  5
424F
330
4212
100
AcDbEntity
  8
DEFPOINTS
 62
     0
100
AcDbPoint
 10
117.1909136231484
 20
122.4267604963307
 30
0.0
  0
POINT
  5
4250
330
4212
100
AcDbEntity
  8
DEFPOINTS
 62
     0
100
AcDbPoint
 10
143.1909202004901
 20
122.4267607734368
 30
0.0
  0
POINT
  5
4251
330
4212
100
AcDbEntity
  8
DEFPOINTS
 62
     0
100
AcDbPoint
 10
139.1909197845391
 20
129.3549637635628
 30
0.0
  0
POINT
  5
4252
330
4212
100
AcDbEntity
  8
DEFPOINTS
 62
     0
100
AcDbPoint
 10
121.1909140853162
 20
129.3549634597734
 30
0.0
  0
ENDBLK
  5
421F
330
4212
100
AcDbEntity
  8
0
100
AcDbBlockEnd
  0
BLOCK
  5
422A
330
4221
100
AcDbEntity
  8
0
100
AcDbBlockBegin
  2
*D35
 70
     1
 10
0.0
 20
0.0
 30
0.0
  3
*D35
  1

  0
LINE
  5
4222
330
4221
100
AcDbEntity
  8
0
 62
   115
370
    -2
100
AcDbLine
 10
181.7353420127283
 20
110.3596880712642
 30
0.0
 11
151.5738457114136
 21
130.5965434182582
 31
0.0
  0
LINE
  5
4223
330
4221
100
AcDbEntity
  8
0
 62
   115
370
    -2
100
AcDbLine
 10
108.8079876322632
 20
159.2902950508693
 30
0.0
 11
105.6939688400921
 21
161.3796458979041
 31
0.0
  0
MTEXT
  5
4224
330
4221
100
AcDbEntity
  8
0
 62
     7
100
AcDbMText
 10
170.5397370591381
 20
122.9033469753774
 30
0.0
 40
4.5
 41
0.0
 71
     5
 72
     1
  1
\A1;P,C,D 44
 11
0.8304050112456378
 21
-0.5571602258759432
 31
0.0
 73
     1
 44
1.0
1001
ACAD
1000
MTEXTBEGIN
1070
    73
1070
     1
1070
    44
1040
1.0
1070
    74
1070
     0
1000
MTEXTEND
  0
LINE
  5
4225
330
4221
100
AcDbEntity
  8
0
 62
   115
370
    -2
100
AcDbLine
 10
111.9220064244344
 20
157.2009442038346
 30
0.0
 11
148.4598269192424
 21
132.685894265293
 31
0.0
  0
SOLID
  5
4226
330
4221
100
AcDbEntity
  8
0
 62
   115
100
AcDbTrace
 10
109.1562127734357
 20
159.8092981828979
 30
0.0
 11
108.4597624910908
 21
158.7712919188408
 31
0.0
 12
111.9220064244344
 22
157.2009442038346
 32
0.0
 13
111.9220064244344
 23
157.2009442038346
 33
0.0
  0
SOLID
  5
4227
330
4221
100
AcDbEntity
  8
0
 62
   115
100
AcDbTrace
 10
151.922070852586
 20
131.1155465502868
 30
0.0
 11
151.2256205702411
 21
130.0775402862297
 31
0.0
 12
148.4598269192424
 22
132.685894265293
 32
0.0
 13
148.4598269192424
 23
132.685894265293
 33
0.0
  0
POINT
  5
4228
330
4221
100
AcDbEntity
  8
DEFPOINTS
 62
     0
100
AcDbPoint
 10
148.4598269192424
 20
132.685894265293
 30
0.0
  0
POINT
  5
4229
330
4221
100
AcDbEntity
  8
DEFPOINTS
 62
     0
100
AcDbPoint
 10
111.9220064244344
 20
157.2009442038346
 30
0.0
  0
ENDBLK
  5
422B
330
4221
100
AcDbEntity
  8
0
100
AcDbBlockEnd
  0
BLOCK
  5
423B
330
4231
100
AcDbEntity
  8
0
100
AcDbBlockBegin
  2
*D36
 70
     1
 10
0.0
 20
0.0
 30
0.0
  3
*D36
  1

  0
LINE
  5
4232
330
4231
100
AcDbEntity
  8
0
 62
   115
370
    -2
100
AcDbLine
 10
110.1909166718384
 20
125.6050620873467
 30
0.0
 11
110.1909166718384
 21
95.17498129172706
 31
0.0
  0
LINE
  5
4233
330
4231
100
AcDbEntity
  8
0
 62
   115
370
    -2
100
AcDbLine
 10
150.1909163718384
 20
125.6050617565561
 30
0.0
 11
150.1909163718384
 21
95.17498129172706
 31
0.0
  0
LINE
  5
4234
330
4231
100
AcDbEntity
  8
0
 62
   115
370
    -2
100
AcDbLine
 10
113.9409166718384
 20
96.37498129172708
 30
0.0
 11
146.4409163718384
 21
96.37498129172708
 31
0.0
  0
SOLID
  5
4235
330
4231
100
AcDbEntity
  8
0
 62
   115
100
AcDbTrace
 10
113.9409166718384
 20
96.99998129172708
 30
0.0
 11
113.9409166718384
 21
95.74998129172708
 31
0.0
 12
110.1909166718384
 22
96.37498129172708
 32
0.0
 13
110.1909166718384
 23
96.37498129172708
 33
0.0
  0
SOLID
  5
4236
330
4231
100
AcDbEntity
  8
0
 62
   115
100
AcDbTrace
 10
146.4409163718384
 20
96.99998129172708
 30
0.0
 11
146.4409163718384
 21
95.74998129172708
 31
0.0
 12
150.1909163718384
 22
96.37498129172708
 32
0.0
 13
150.1909163718384
 23
96.37498129172708
 33
0.0
  0
MTEXT
  5
4237
330
4231
100
AcDbEntity
  8
0
 62
     7
100
AcDbMText
 10
130.1909165218384
 20
100.124981291727
 30
0.0
 40
4.5
 41
0.0
 71
     5
 72
     1
  1
\A1;40
 73
     1
 44
1.0
1001
ACAD
1000
MTEXTBEGIN
1070
    73
1070
     1
1070
    44
1040
1.0
1070
    74
1070
     0
1000
MTEXTEND
  0
POINT
  5
4238
330
4231
100
AcDbEntity
  8
DEFPOINTS
 62
     0
100
AcDbPoint
 10
110.1909166718384
 20
126.8050620873467
 30
0.0
  0
POINT
  5
4239
330
4231
100
AcDbEntity
  8
DEFPOINTS
 62
     0
100
AcDbPoint
 10
150.1909163718384
 20
126.8050617565561
 30
0.0
  0
POINT
  5
423A
330
4231
100
AcDbEntity
  8
DEFPOINTS
 62
     0
100
AcDbPoint
 10
150.1909163718384
 20
96.37498129172708
 30
0.0
  0
ENDBLK
  5
423C
330
4231
100
AcDbEntity
  8
0
100
AcDbBlockEnd
  0
BLOCK
  5
426D
330
4262
100
AcDbEntity
  8
0
100
AcDbBlockBegin
  2
*D37
 70
     1
 10
0.0
 20
0.0
 30
0.0
  3
*D37
  1

  0
LINE
  5
4263
330
4262
100
AcDbEntity
  8
0
 62
   115
370
    -2
100
AcDbLine
 10
374.2602951230654
 20
137.1434262345637
 30
0.0
 11
386.0613767965467
 21
137.1434262345637
 31
0.0
  0
LINE
  5
4264
330
4262
100
AcDbEntity
  8
0
 62
   115
370
    -2
100
AcDbLine
 10
374.2602951230654
 20
152.7434262345638
 30
0.0
 11
386.0613767965467
 21
152.7434262345638
 31
0.0
  0
LINE
  5
4265
330
4262
100
AcDbEntity
  8
0
 62
   115
370
    -2
100
AcDbLine
 10
384.8613767965467
 20
140.8934262345638
 30
0.0
 11
384.8613767965467
 21
148.9934262345638
 31
0.0
  0
LINE
  5
4266
330
4262
100
AcDbEntity
  8
0
 62
   115
370
    -2
100
AcDbLine
 10
384.8613767965467
 20
152.7434262345638
 30
0.0
 11
384.8613767965467
 21
177.2791405202781
 31
0.0
  0
SOLID
  5
4267
330
4262
100
AcDbEntity
  8
0
 62
   115
100
AcDbTrace
 10
384.2363767965466
 20
140.8934262345638
 30
0.0
 11
385.4863767965467
 21
140.8934262345638
 31
0.0
 12
384.8613767965467
 22
137.1434262345637
 32
0.0
 13
384.8613767965467
 23
137.1434262345637
 33
0.0
  0
SOLID
  5
4268
330
4262
100
AcDbEntity
  8
0
 62
   115
100
AcDbTrace
 10
384.2363767965466
 20
148.9934262345638
 30
0.0
 11
385.4863767965467
 21
148.9934262345638
 31
0.0
 12
384.8613767965467
 22
152.7434262345638
 32
0.0
 13
384.8613767965467
 23
152.7434262345638
 33
0.0
  0
MTEXT
  5
4269
330
4262
100
AcDbEntity
  8
0
 62
     7
100
AcDbMText
 10
381.1113767965466
 20
166.886283377421
 30
0.0
 40
4.5
 41
0.0
 71
     5
 72
     1
  1
\A1;%%c15.6
 11
0.0000000000000001
 21
1.0
 31
0.0
 73
     1
 44
1.0
1001
ACAD
1000
MTEXTBEGIN
1070
    73
1070
     1
1070
    44
1040
1.0
1070
    74
1070
     0
1000
MTEXTEND
  0
POINT
  5
426A
330
4262
100
AcDbEntity
  8
DEFPOINTS
 62
     0
100
AcDbPoint
 10
373.0602951230653
 20
137.1434262345637
 30
0.0
  0
POINT
  5
426B
330
4262
100
AcDbEntity
  8
DEFPOINTS
 62
     0
100
AcDbPoint
 10
373.0602951230653
 20
152.7434262345638
 30
0.0
  0
POINT
  5
426C
330
4262
100
AcDbEntity
  8
DEFPOINTS
 62
     0
100
AcDbPoint
 10
384.8613767965467
 20
152.7434262345638
 30
0.0
  0
ENDBLK
  5
426E
330
4262
100
AcDbEntity
  8
0
100
AcDbBlockEnd
  0
ENDSEC
  0
SECTION
  2
ENTITIES
  0
INSERT
  5
247E
330
19
100
AcDbEntity
  8
0
100
AcDbBlockReference
  2
MCLBOMATTRIB
 10
0.0
 20
0.0
 30
0.0
1001
MCLBOMATTRIB
1002
{
1000
1
1005
0
1005
0
1000
강관 용접식 플렌지
1005
0
1000
Steel Welding Pipe Flange
1005
0
1000
SOP 5K 10A FF
1005
0
1000

1005
2480
1000
1
1005
0
1000

1005
2481
1000

1005
0
1000

1005
2482
1000

1005
0
1000

1005
0
1000

1005
0
1000

1005
0
1000

1005
0
1000

1005
0
1002
}
  0
TEXT
  5
2480
330
19
100
AcDbEntity
  8
0
 62
   111
100
AcDbText
 10
344.9746279359911
 20
60.9644544167441
 30
0.0
 40
2.5
  1

  7
STYLE1
100
AcDbText
  0
TEXT
  5
2481
330
19
100
AcDbEntity
  8
0
 62
   111
100
AcDbText
 10
379.9746279359911
 20
60.9644544167441
 30
0.0
 40
2.5
  1

  7
STYLE1
100
AcDbText
  0
TEXT
  5
2482
330
19
100
AcDbEntity
  8
0
 62
   111
100
AcDbText
 10
394.9746279359911
 20
60.9644544167441
 30
0.0
 40
2.5
  1

  7
STYLE1
100
AcDbText
  0
MTEXT
  5
24CA
330
19
100
AcDbEntity
  8
0
100
AcDbMText
 10
295.0
 20
25.00000000000007
 30
0.0
 40
2.5
 41
20.0
 71
     5
 72
     5
  1

  7
STYLE1
 73
     1
 44
1.0
1001
ACAD
1000
MTEXTBEGIN
1070
    73
1070
     1
1070
    44
1040
1.0
1070
    74
1070
     0
1000
MTEXTEND
  0
MTEXT
  5
24DF
330
19
100
AcDbEntity
  8
0
100
AcDbMText
 10
265.0
 20
292.0
 30
0.0
 40
1.8
 41
15.0
 71
     1
 72
     5
  1

  7
STYLE1
 73
     1
 44
1.0
1001
ACAD
1000
MTEXTBEGIN
1070
    73
1070
     1
1070
    44
1040
1.0
1070
    74
1070
     0
1000
MTEXTEND
  0
LINE
  5
2EC4
330
19
100
AcDbEntity
  8
1
100
AcDbLine
 10
211.4489087048997
 20
144.9434262345638
 30
0.0
 11
375.6112239250492
 21
144.9434262345638
 31
0.0
  0
LINE
  5
3100
330
19
100
AcDbEntity
  8
0
100
AcDbLine
 10
315.1272933649563
 20
127.9434262345638
 30
0.0
 11
315.1272933649563
 21
161.9434262345638
 31
0.0
  0
LINE
  5
324C
330
19
100
AcDbEntity
  8
0
100
AcDbLine
 10
271.1272870649564
 20
117.9434262345638
 30
0.0
 11
271.1272870649564
 21
171.9434262345638
 31
0.0
  0
TEXT
  5
32A5
330
19
100
AcDbEntity
  8
0
100
AcDbText
 10
160.4507800264357
 20
62.0960919011581
 30
0.0
 40
10.5
  1
STK1605-3-R
  7
T2
 72
     4
 11
216.4507800264357
 21
67.3460919011581
 31
0.0
100
AcDbText
  0
LINE
  5
3316
330
19
100
AcDbEntity
  8
9
  6
Continuous
100
AcDbLine
 10
213.5602951230652
 20
151.0934262345638
 30
0.0
 11
270.6272930649564
 21
151.0934262345637
 31
0.0
  0
LINE
  5
3317
330
19
100
AcDbEntity
  8
9
  6
Continuous
100
AcDbLine
 10
213.5602951230653
 20
138.7934262345638
 30
0.0
 11
270.6272930649566
 21
138.7934262345638
 31
0.0
  0
LINE
  5
3343
330
19
100
AcDbEntity
  8
9
  6
Continuous
100
AcDbLine
 10
315.6272930649564
 20
151.0934262345638
 30
0.0
 11
373.5602951230653
 21
151.0934262345638
 31
0.0
  0
LINE
  5
3349
330
19
100
AcDbEntity
  8
9
  6
Continuous
100
AcDbLine
 10
315.6272930649565
 20
138.7934262345638
 30
0.0
 11
373.5602951230653
 21
138.7934262345638
 31
0.0
  0
LINE
  5
34B0
330
19
100
AcDbEntity
  8
SL2-11
100
AcDbLine
 10
117.1909197337007
 20
167.4600815007259
 30
0.0
 11
121.1909197337007
 21
160.5318782704504
 31
0.0
  0
LINE
  5
34EB
330
19
100
AcDbEntity
  8
SL2-11
100
AcDbLine
 10
143.190914089938
 20
167.4600812236198
 30
0.0
 11
139.1909141361548
 21
160.531877966661
 31
0.0
  0
LINE
  5
355D
330
19
100
AcDbEntity
  8
1
100
AcDbLine
 10
130.1909166718384
 20
174.0766222980479
 30
0.0
 11
130.1909166718384
 21
115.8102161710797
 31
0.0
  0
LINE
  5
375C
330
19
100
AcDbEntity
  8
SL2-11
100
AcDbLine
 10
143.1909202004901
 20
122.4267607734368
 30
0.0
 11
139.1909197845391
 21
129.3549637635628
 31
0.0
  0
LINE
  5
3784
330
19
100
AcDbEntity
  8
SL2-11
100
AcDbLine
 10
117.1909136231483
 20
122.4267604963307
 30
0.0
 11
121.1909140853162
 21
129.3549634597734
 31
0.0
  0
LINE
  5
3936
330
19
100
AcDbEntity
  8
0
100
AcDbLine
 10
315.1272933649563
 20
161.9434262345638
 30
0.0
 11
315.6272933649564
 21
161.4434262345637
 31
0.0
  0
LINE
  5
3939
330
19
100
AcDbEntity
  8
0
100
AcDbLine
 10
315.6272933649564
 20
128.4434262345638
 30
0.0
 11
315.1272933649563
 21
127.9434262345638
 31
0.0
  0
LINE
  5
3945
330
19
100
AcDbEntity
  8
0
100
AcDbLine
 10
270.6272930649567
 20
118.4434262345638
 30
0.0
 11
270.6272930649563
 21
171.4434262345638
 31
0.0
  0
LINE
  5
394B
330
19
100
AcDbEntity
  8
0
100
AcDbLine
 10
213.5602951230652
 20
137.6434262345638
 30
0.0
 11
213.5602951230653
 21
152.2434262345638
 31
0.0
  0
LINE
  5
394E
330
19
100
AcDbEntity
  8
0
100
AcDbLine
 10
214.0602951230653
 20
152.7434262345638
 30
0.0
 11
213.5602951230653
 21
152.2434262345638
 31
0.0
  0
LINE
  5
394F
330
19
100
AcDbEntity
  8
0
100
AcDbLine
 10
213.5602951230652
 20
137.6434262345638
 30
0.0
 11
214.0602951230653
 21
137.1434262345637
 31
0.0
  0
MTEXT
  5
3954
330
19
100
AcDbEntity
  8
0
 62
   111
100
AcDbMText
 10
0.0
 20
0.0
 30
0.0
 40
3.0
 41
0.0
 71
     5
 72
     5
  1

 11
0.6658655619423123
 21
0.7460717481712123
 31
0.0
 73
     1
 44
1.0
1001
ACAD
1000
MTEXTBEGIN
1070
    73
1070
     1
1070
    44
1040
1.0
1070
    74
1070
     0
1000
MTEXTEND
  0
MTEXT
  5
3959
330
19
100
AcDbEntity
  8
0
 62
   111
100
AcDbMText
 10
0.0
 20
0.0
 30
0.0
 40
3.0
 41
0.0
 71
     5
 72
     5
  1

 11
0.9994246805919202
 21
0.0339161882253633
 31
0.0
 73
     1
 44
1.0
1001
ACAD
1000
MTEXTBEGIN
1070
    73
1070
     1
1070
    44
1040
1.0
1070
    74
1070
     0
1000
MTEXTEND
  0
LINE
  5
3B0B
330
19
100
AcDbEntity
  8
1
100
AcDbLine
 10
101.0577136083549
 20
144.9434252345638
 30
0.0
 11
159.3241197353218
 21
144.9434252345638
 31
0.0
  0
MTEXT
  5
3CA0
330
19
100
AcDbEntity
  8
0
 62
   111
100
AcDbMText
 10
0.0
 20
0.0
 30
0.0
 40
3.0
 41
0.0
 71
     5
 72
     5
  1

 11
0.8978290820304724
 21
-0.4403441148242126
 31
0.0
 73
     1
 44
1.0
1001
ACAD
1000
MTEXTBEGIN
1070
    73
1070
     1
1070
    44
1040
1.0
1070
    74
1070
     0
1000
MTEXTEND
  0
MTEXT
  5
3CA1
330
19
100
AcDbEntity
  8
0
 62
   111
100
AcDbMText
 10
0.0
 20
0.0
 30
0.0
 40
3.0
 41
0.0
 71
     5
 72
     5
  1

 11
0.8978290820304724
 21
-0.4403441148242126
 31
0.0
 73
     1
 44
1.0
1001
ACAD
1000
MTEXTBEGIN
1070
    73
1070
     1
1070
    44
1040
1.0
1070
    74
1070
     0
1000
MTEXTEND
  0
MTEXT
  5
3CA2
330
19
100
AcDbEntity
  8
0
 62
   111
100
AcDbMText
 10
0.0
 20
0.0
 30
0.0
 40
3.0
 41
0.0
 71
     5
 72
     5
  1

 11
0.8978290820304724
 21
-0.4403441148242126
 31
0.0
 73
     1
 44
1.0
1001
ACAD
1000
MTEXTBEGIN
1070
    73
1070
     1
1070
    44
1040
1.0
1070
    74
1070
     0
1000
MTEXTEND
  0
MTEXT
  5
3CA3
330
19
100
AcDbEntity
  8
0
 62
   111
100
AcDbMText
 10
0.0
 20
0.0
 30
0.0
 40
3.0
 41
0.0
 71
     5
 72
     5
  1

 11
0.8978290820304724
 21
-0.4403441148242126
 31
0.0
 73
     1
 44
1.0
1001
ACAD
1000
MTEXTBEGIN
1070
    73
1070
     1
1070
    44
1040
1.0
1070
    74
1070
     0
1000
MTEXTEND
  0
MTEXT
  5
3CA8
330
19
100
AcDbEntity
  8
0
 62
   111
100
AcDbMText
 10
0.0
 20
0.0
 30
0.0
 40
3.0
 41
0.0
 71
     5
 72
     5
  1

 11
0.3826834323650867
 21
-0.923879532511288
 31
0.0
 73
     1
 44
1.0
1001
ACAD
1000
MTEXTBEGIN
1070
    73
1070
     1
1070
    44
1040
1.0
1070
    74
1070
     0
1000
MTEXTEND
  0
CIRCLE
  5
4179
330
19
100
AcDbEntity
  8
0
100
AcDbCircle
 10
130.1909166718384
 20
144.9434192345638
 30
0.0
 40
7.799999999999998
  0
ARC
  5
417A
330
19
100
AcDbEntity
  8
9
100
AcDbCircle
 10
130.1909166718384
 20
144.9434192345638
 30
0.0
 40
6.349999999999998
100
AcDbArc
 50
179.9999458622556
 51
90.0
  0
CIRCLE
  5
417B
330
19
100
AcDbEntity
  8
2
100
AcDbCircle
 10
130.1909166718384
 20
144.9434192345638
 30
0.0
 40
17.0
  0
ARC
  5
417C
330
19
100
AcDbEntity
  8
0
100
AcDbCircle
 10
130.1909166718384
 20
144.9434192345638
 30
0.0
 40
27.0
100
AcDbArc
 50
222.2054464037323
 51
317.7945526486223
  0
CIRCLE
  5
417D
330
19
100
AcDbEntity
  8
1
100
AcDbCircle
 10
130.1909166718384
 20
144.9434192345638
 30
0.0
 40
22.0
  0
LINE
  5
417E
330
19
100
AcDbEntity
  8
0
100
AcDbLine
 10
110.1909166718384
 20
163.0817763817808
 30
0.0
 11
110.1909166718384
 21
126.8050620873467
 31
0.0
  0
LINE
  5
417F
330
19
100
AcDbEntity
  8
0
100
AcDbLine
 10
150.1909163718384
 20
163.0817767125715
 30
0.0
 11
150.1909163718384
 21
126.8050617565561
 31
0.0
  0
CIRCLE
  5
4180
330
19
100
AcDbEntity
  8
0
100
AcDbCircle
 10
119.1909197337007
 20
163.9959798855881
 30
0.0
 40
2.25
  0
CIRCLE
  5
4181
330
19
100
AcDbEntity
  8
0
100
AcDbCircle
 10
141.1909141130464
 20
163.9959795951404
 30
0.0
 40
2.25
  0
CIRCLE
  5
4182
330
19
100
AcDbEntity
  8
0
100
AcDbCircle
 10
141.1909199925147
 20
125.8908622684999
 30
0.0
 40
2.25
  0
CIRCLE
  5
4183
330
19
100
AcDbEntity
  8
0
100
AcDbCircle
 10
119.1909138542323
 20
125.8908619780521
 30
0.0
 40
2.25
  0
ARC
  5
4188
330
19
100
AcDbEntity
  8
0
100
AcDbCircle
 10
130.1909166718384
 20
144.9434192345638
 30
0.0
 40
27.0
100
AcDbArc
 50
42.20544735137774
 51
137.7945535962677
  0
CIRCLE
  5
4189
330
19
100
AcDbEntity
  8
0
100
AcDbCircle
 10
130.1909166718384
 20
144.9434192345638
 30
0.0
 40
11.15
  0
LINE
  5
418B
330
19
100
AcDbEntity
  8
2
100
AcDbLine
 10
127.6909166718384
 20
171.8274293521039
 30
0.0
 11
127.6909166718384
 21
155.8095362963297
 31
0.0
  0
LINE
  5
418C
330
19
100
AcDbEntity
  8
2
100
AcDbLine
 10
132.6909166718384
 20
171.8274293521039
 30
0.0
 11
132.6909166718384
 21
155.8095362963297
 31
0.0
  0
LINE
  5
418D
330
19
100
AcDbEntity
  8
2
100
AcDbLine
 10
127.1909166718384
 20
171.7762349645612
 30
0.0
 11
127.1909166718384
 21
165.9434192345638
 31
0.0
  0
LINE
  5
418E
330
19
100
AcDbEntity
  8
2
100
AcDbLine
 10
133.1909166718384
 20
171.7762349645612
 30
0.0
 11
133.1909166718384
 21
165.9434192345638
 31
0.0
  0
LINE
  5
4194
330
19
100
AcDbEntity
  8
2
100
AcDbLine
 10
127.1909166718384
 20
165.9434192345638
 30
0.0
 11
133.1909166718384
 21
165.9434192345638
 31
0.0
  0
LINE
  5
4195
330
19
100
AcDbEntity
  8
2
100
AcDbLine
 10
127.6909166718384
 20
165.4434192345638
 30
0.0
 11
132.6909166718384
 21
165.4434192345638
 31
0.0
  0
LINE
  5
4196
330
19
100
AcDbEntity
  8
2
100
AcDbLine
 10
127.6909166718384
 20
165.4434192345638
 30
0.0
 11
127.1909166718384
 21
165.9434192345638
 31
0.0
  0
LINE
  5
4197
330
19
100
AcDbEntity
  8
2
100
AcDbLine
 10
132.6909166718384
 20
165.4434192345638
 30
0.0
 11
133.1909166718384
 21
165.9434192345638
 31
0.0
  0
ARC
  5
4199
330
19
100
AcDbEntity
  8
0
100
AcDbCircle
 10
130.1909166718384
 20
144.9434192345638
 30
0.0
 40
26.5
100
AcDbArc
 50
40.99935463889584
 51
139.0006463497954
  0
ARC
  5
419A
330
19
100
AcDbEntity
  8
0
100
AcDbCircle
 10
130.1909166718384
 20
144.9434192345638
 30
0.0
 40
26.5
100
AcDbArc
 50
220.9993536502046
 51
319.0006453611041
  0
LINE
  5
419B
330
19
100
AcDbEntity
  8
0
100
AcDbLine
 10
214.0602951230653
 20
152.7434262345638
 30
0.0
 11
214.0602951230653
 21
137.1434262345637
 31
0.0
  0
LINE
  5
419C
330
19
100
AcDbEntity
  8
0
100
AcDbLine
 10
373.5602951230653
 20
137.6434262345638
 30
0.0
 11
373.5602951230653
 21
152.2434262345638
 31
0.0
  0
LINE
  5
419D
330
19
100
AcDbEntity
  8
0
100
AcDbLine
 10
373.0602951230653
 20
152.7434262345638
 30
0.0
 11
373.5602951230653
 21
152.2434262345638
 31
0.0
  0
LINE
  5
419E
330
19
100
AcDbEntity
  8
0
100
AcDbLine
 10
373.0602951230653
 20
137.1434262345637
 30
0.0
 11
373.5602951230653
 21
137.6434262345638
 31
0.0
  0
LINE
  5
419F
330
19
100
AcDbEntity
  8
0
100
AcDbLine
 10
373.0602951230653
 20
152.7434262345638
 30
0.0
 11
373.0602951230653
 21
137.1434262345637
 31
0.0
  0
LINE
  5
41AC
330
19
100
AcDbEntity
  8
0
100
AcDbLine
 10
271.1272930649563
 20
171.9434262345638
 30
0.0
 11
280.1272930649564
 21
171.9434262345638
 31
0.0
  0
LINE
  5
41AD
330
19
100
AcDbEntity
  8
0
100
AcDbLine
 10
271.1272930649567
 20
117.9434262345638
 30
0.0
 11
280.1272930649566
 21
117.9434262345638
 31
0.0
  0
LINE
  5
41B1
330
19
100
AcDbEntity
  8
0
100
AcDbLine
 10
280.6272930649566
 20
118.4434262345638
 30
0.0
 11
280.6272930649564
 21
171.4434262345638
 31
0.0
  0
LINE
  5
41B2
330
19
100
AcDbEntity
  8
0
100
AcDbLine
 10
280.1272930649567
 20
117.9434262345638
 30
0.0
 11
280.1272930649563
 21
171.9434262345638
 31
0.0
  0
LINE
  5
41B3
330
19
100
AcDbEntity
  8
0
100
AcDbLine
 10
315.6272930649566
 20
128.4434259345639
 30
0.0
 11
315.6272930649564
 21
161.4434265345638
 31
0.0
  0
LINE
  5
41B4
330
19
100
AcDbEntity
  8
0
100
AcDbLine
 10
280.6272930649566
 20
127.9434262345638
 30
0.0
 11
315.1272933649565
 21
127.9434262345638
 31
0.0
  0
LINE
  5
41B5
330
19
100
AcDbEntity
  8
0
100
AcDbLine
 10
280.6272930649565
 20
161.9434262345638
 30
0.0
 11
315.1272933649563
 21
161.9434262345638
 31
0.0
  0
LINE
  5
41B6
330
19
100
AcDbEntity
  8
0
100
AcDbLine
 10
270.6272930649563
 20
171.4434262345638
 30
0.0
 11
271.1272930649563
 21
171.9434262345638
 31
0.0
  0
LINE
  5
41B7
330
19
100
AcDbEntity
  8
0
100
AcDbLine
 10
280.1272930649564
 20
171.9434262345638
 30
0.0
 11
280.6272930649564
 21
171.4434262345638
 31
0.0
  0
LINE
  5
41B8
330
19
100
AcDbEntity
  8
0
100
AcDbLine
 10
270.6272930649567
 20
118.4434262345638
 30
0.0
 11
271.1272930649567
 21
117.9434262345638
 31
0.0
  0
LINE
  5
41B9
330
19
100
AcDbEntity
  8
0
100
AcDbLine
 10
280.1272930649566
 20
117.9434262345638
 30
0.0
 11
280.6272930649566
 21
118.4434262345638
 31
0.0
  0
LINE
  5
41BA
330
19
100
AcDbEntity
  8
2
100
AcDbLine
 10
270.6272930649564
 20
156.0934262345637
 30
0.0
 11
275.6272930649565
 21
156.0934262345637
 31
0.0
  0
LINE
  5
41BB
330
19
100
AcDbEntity
  8
2
100
AcDbLine
 10
270.6272930649566
 20
133.7934262345638
 30
0.0
 11
275.6272930649566
 21
133.7934262345638
 31
0.0
  0
LINE
  5
41BC
330
19
100
AcDbEntity
  8
2
100
AcDbLine
 10
275.6272930649566
 20
133.7934262345638
 30
0.0
 11
275.6272930649565
 21
156.0934262345638
 31
0.0
  0
LINE
  5
41BD
330
19
100
AcDbEntity
  8
2
100
AcDbLine
 10
310.6272930649566
 20
133.7934262345638
 30
0.0
 11
310.6272930649565
 21
156.0934262345637
 31
0.0
  0
LINE
  5
41BE
330
19
100
AcDbEntity
  8
2
100
AcDbLine
 10
310.6272930649565
 20
133.7934262345638
 30
0.0
 11
315.6272930649565
 21
133.7934262345638
 31
0.0
  0
LINE
  5
41BF
330
19
100
AcDbEntity
  8
2
100
AcDbLine
 10
310.6272930649563
 20
156.0934262345637
 30
0.0
 11
315.6272930649564
 21
156.0934262345637
 31
0.0
  0
DIMENSION
  5
41CE
330
19
100
AcDbEntity
  8
0
100
AcDbDimension
  2
*D29
 10
328.3259235003959
 20
161.9434262345637
 30
0.0
 11
324.5759235003959
 21
144.9434262345638
 31
0.0
 70
    32
  1
%%c34h7
 71
     5
 42
33.99999999999997
  3
STANDARD
100
AcDbAlignedDimension
 13
315.1272933649565
 23
127.9434262345638
 33
0.0
 14
315.1272933649563
 24
161.9434262345638
 34
0.0
 50
90.0
100
AcDbRotatedDimension
1001
ACAD
1000
DSTYLE
1002
{
1070
    40
1040
1.5
1070
    41
1040
2.5
1070
    42
1040
0.8
1070
    43
1040
0.8
1070
    44
1040
0.8
1070
    73
1070
     0
1070
    74
1070
     0
1070
    77
1070
     3
1070
    78
1070
     8
1070
   141
1040
-1.0
1070
   147
1040
1.0
1070
   172
1070
     1
1070
   176
1070
   115
1070
   177
1070
   115
1070
   178
1070
     7
1070
   271
1070
     3
1002
}
  0
DIMENSION
  5
41DB
330
19
100
AcDbEntity
  8
0
100
AcDbDimension
  2
*D30
 10
261.9183341539276
 20
171.9434262345638
 30
0.0
 11
258.1683341539275
 21
144.9434262345638
 31
0.0
 70
    32
  1
%%c54
 71
     5
 42
53.99999999999998
  3
STANDARD
100
AcDbAlignedDimension
 13
271.1272870649564
 23
117.9434262345638
 33
0.0
 14
271.1272930649563
 24
171.9434262345638
 34
0.0
 50
90.0
100
AcDbRotatedDimension
1001
ACAD
1000
DSTYLE
1002
{
1070
    40
1040
1.5
1070
    41
1040
2.5
1070
    42
1040
0.8
1070
    43
1040
0.8
1070
    44
1040
0.8
1070
    73
1070
     0
1070
    74
1070
     0
1070
    77
1070
     3
1070
    78
1070
     8
1070
   141
1040
-1.0
1070
   147
1040
1.0
1070
   172
1070
     1
1070
   176
1070
   115
1070
   177
1070
   115
1070
   178
1070
     7
1070
   271
1070
     3
1002
}
  0
DIMENSION
  5
41E8
330
19
100
AcDbEntity
  8
0
100
AcDbDimension
  2
*D31
 10
280.6272930649566
 20
105.1558326167044
 30
0.0
 11
275.6272930649567
 21
108.9058326167044
 31
0.0
 70
    32
 71
     5
 42
9.999999999999943
  3
STANDARD
100
AcDbAlignedDimension
 13
270.6272930649567
 23
118.4434262345638
 33
0.0
 14
280.6272930649566
 24
118.4434262345638
 34
0.0
100
AcDbRotatedDimension
1001
ACAD
1000
DSTYLE
1002
{
1070
    40
1040
1.5
1070
    41
1040
2.5
1070
    42
1040
0.8
1070
    43
1040
0.8
1070
    44
1040
0.8
1070
    73
1070
     0
1070
    74
1070
     0
1070
    77
1070
     3
1070
    78
1070
     8
1070
   141
1040
-1.0
1070
   147
1040
1.0
1070
   172
1070
     1
1070
   176
1070
   115
1070
   177
1070
   115
1070
   178
1070
     7
1070
   271
1070
     3
1002
}
  0
DIMENSION
  5
41F7
330
19
100
AcDbEntity
  8
0
100
AcDbDimension
  2
*D32
 10
315.6272930649566
 20
105.1558326167044
 30
0.0
 11
298.1272930649566
 21
108.9058326167044
 31
0.0
 70
    32
 71
     5
 42
34.99999999999995
  3
STANDARD
100
AcDbAlignedDimension
 13
280.6272930649566
 23
118.4434262345638
 33
0.0
 14
315.6272930649566
 24
128.4434259345639
 34
0.0
100
AcDbRotatedDimension
1001
ACAD
1000
DSTYLE
1002
{
1070
    40
1040
1.5
1070
    41
1040
2.5
1070
    42
1040
0.8
1070
    43
1040
0.8
1070
    44
1040
0.8
1070
    73
1070
     0
1070
    74
1070
     0
1070
    77
1070
     3
1070
    78
1070
     8
1070
   141
1040
-1.0
1070
   147
1040
1.0
1070
   172
1070
     1
1070
   176
1070
   115
1070
   177
1070
   115
1070
   178
1070
     7
1070
   271
1070
     3
1002
}
  0
DIMENSION
  5
4204
330
19
100
AcDbEntity
  8
0
100
AcDbDimension
  2
*D33
 10
315.6272930649566
 20
95.9934903803462
 30
0.0
 11
293.1272930649566
 21
99.7434903803462
 31
0.0
 70
    32
 71
     5
 42
44.99999999999988
  3
STANDARD
100
AcDbAlignedDimension
 13
270.6272930649567
 23
118.4434262345638
 33
0.0
 14
315.6272930649566
 24
128.4434259345639
 34
0.0
100
AcDbRotatedDimension
1001
ACAD
1000
DSTYLE
1002
{
1070
    40
1040
1.5
1070
    41
1040
2.5
1070
    42
1040
0.8
1070
    43
1040
0.8
1070
    44
1040
0.8
1070
    73
1070
     0
1070
    74
1070
     0
1070
    77
1070
     3
1070
    78
1070
     8
1070
   141
1040
-1.0
1070
   147
1040
1.0
1070
   172
1070
     1
1070
   176
1070
   115
1070
   177
1070
   115
1070
   178
1070
     7
1070
   271
1070
     3
1002
}
  0
DIMENSION
  5
4211
330
19
100
AcDbEntity
  8
0
100
AcDbDimension
  2
*D34
 10
121.1909140853162
 20
129.3549634597734
 30
0.0
 11
129.809614464378
 21
107.6385230831199
 31
0.0
 70
   162
 71
     5
 42
1.04719767794216
  3
STANDARD
100
AcDb2LineAngularDimension
 13
143.1909202004901
 23
122.4267607734368
 33
0.0
 14
139.1909197845391
 24
129.3549637635628
 34
0.0
 15
117.1909136231483
 25
122.4267604963307
 35
0.0
 16
136.6691841052378
 26
108.2033494207317
 36
0.0
1001
ACAD
1000
DSTYLE
1002
{
1070
    40
1040
1.5
1070
    41
1040
2.5
1070
    42
1040
0.8
1070
    43
1040
0.8
1070
    44
1040
0.8
1070
    73
1070
     0
1070
    74
1070
     0
1070
    77
1070
     3
1070
    78
1070
     8
1070
   141
1040
-1.0
1070
   147
1040
1.0
1070
   172
1070
     1
1070
   176
1070
   115
1070
   177
1070
   115
1070
   178
1070
     7
1070
   271
1070
     3
1002
}
  0
DIMENSION
  5
4220
330
19
100
AcDbEntity
  8
0
100
AcDbDimension
  2
*D35
 10
111.9220064244344
 20
157.2009442038346
 30
0.0
 11
168.2116032581565
 21
119.4334403212438
 31
0.0
 70
    35
  1
P,C,D 44
 71
     5
 42
43.99999999999997
  3
STANDARD
100
AcDbDiametricDimension
 15
148.4598269192424
 25
132.685894265293
 35
0.0
 40
0.0
1001
ACAD
1000
DSTYLE
1002
{
1070
    40
1040
1.5
1070
    41
1040
2.5
1070
    42
1040
0.8
1070
    43
1040
0.8
1070
    44
1040
0.8
1070
    73
1070
     0
1070
    74
1070
     0
1070
    77
1070
     3
1070
    78
1070
     8
1070
   141
1040
-1.0
1070
   147
1040
1.0
1070
   172
1070
     1
1070
   176
1070
   115
1070
   177
1070
   115
1070
   178
1070
     7
1070
   271
1070
     3
1070
   288
1070
     1
1002
}
  0
LEADER
  5
422C
330
19
100
AcDbEntity
  8
0
100
AcDbLeader
  3
STANDARD
 73
     0
 74
     0
 75
     1
 40
4.5
 41
23.35714285714285
 76
     3
 10
142.3159141000479
 20
165.9445367611601
 30
0.0
 10
157.1964346449475
 20
178.226253637873
 30
0.0
 10
160.9464346449476
 20
178.226253637873
 30
0.0
340
422D
1001
ACAD
1000
DSTYLE
1002
{
1070
    40
1040
1.5
1070
    41
1040
2.5
1070
    42
1040
0.8
1070
    43
1040
0.8
1070
    44
1040
0.8
1070
    73
1070
     0
1070
    74
1070
     0
1070
    77
1070
     1
1070
    78
1070
     8
1070
   141
1040
-1.0
1070
   147
1040
1.0
1070
   172
1070
     1
1070
   176
1070
   115
1070
   177
1070
   115
1070
   178
1070
     7
1070
   271
1070
     3
1002
}
  0
MTEXT
  5
422D
102
{ACAD_REACTORS
330
422C
102
}
330
19
100
AcDbEntity
  8
0
 62
     7
100
AcDbMText
 10
162.4464346449475
 20
179.226253637873
 30
0.0
 40
4.5
 41
0.0
 71
     7
 72
     1
  1
4-%%c4.5
 73
     1
 44
1.0
1001
ACAD
1000
MTEXTBEGIN
1070
    73
1070
     1
1070
    44
1040
1.0
1070
    74
1070
     0
1000
MTEXTEND
  0
LEADER
  5
422E
330
19
100
AcDbEntity
  8
0
100
AcDbLeader
  3
STANDARD
 73
     0
 75
     1
 40
4.5
 41
26.78571428571429
 76
     3
 10
130.1909166718384
 20
171.9434192345638
 30
0.0
 10
119.1014494463206
 20
189.8950951224971
 30
0.0
 10
115.3514494463206
 20
189.8950951224971
 30
0.0
340
422F
1001
ACAD
1000
DSTYLE
1002
{
1070
    40
1040
1.5
1070
    41
1040
2.5
1070
    42
1040
0.8
1070
    43
1040
0.8
1070
    44
1040
0.8
1070
    73
1070
     0
1070
    74
1070
     0
1070
    77
1070
     1
1070
    78
1070
     8
1070
   141
1040
-1.0
1070
   147
1040
1.0
1070
   172
1070
     1
1070
   176
1070
   115
1070
   177
1070
   115
1070
   178
1070
     7
1070
   271
1070
     3
1002
}
  0
MTEXT
  5
422F
102
{ACAD_REACTORS
330
422E
102
}
330
19
100
AcDbEntity
  8
0
 62
     7
100
AcDbMText
 10
113.8514494463206
 20
191.395095122497
 30
0.0
 40
4.5
 41
0.0
 71
     9
 72
     1
  1
M6xP1.0
 73
     1
 44
1.0
1001
ACAD
1000
MTEXTBEGIN
1070
    73
1070
     1
1070
    44
1040
1.0
1070
    74
1070
     0
1000
MTEXTEND
  0
DIMENSION
  5
4230
330
19
100
AcDbEntity
  8
0
100
AcDbDimension
  2
*D36
 10
150.1909163718384
 20
96.37498129172708
 30
0.0
 11
130.1909165218384
 21
100.124981291727
 31
0.0
 70
    32
 71
     5
 42
39.99999970000004
  3
STANDARD
100
AcDbAlignedDimension
 13
110.1909166718384
 23
126.8050620873467
 33
0.0
 14
150.1909163718384
 24
126.8050617565561
 34
0.0
100
AcDbRotatedDimension
1001
ACAD
1000
DSTYLE
1002
{
1070
    40
1040
1.5
1070
    41
1040
2.5
1070
    42
1040
0.8
1070
    43
1040
0.8
1070
    44
1040
0.8
1070
    73
1070
     0
1070
    74
1070
     0
1070
    77
1070
     3
1070
    78
1070
     8
1070
   141
1040
-1.0
1070
   147
1040
1.0
1070
   172
1070
     1
1070
   176
1070
   115
1070
   177
1070
   115
1070
   178
1070
     7
1070
   271
1070
     3
1002
}
  0
LINE
  5
425D
330
19
100
AcDbEntity
  8
0
  6
Continuous
100
AcDbLine
 10
214.0602951230653
 20
152.7434262345638
 30
0.0
 11
270.6272930649564
 21
152.7434262345638
 31
0.0
  0
LINE
  5
425E
330
19
100
AcDbEntity
  8
0
  6
Continuous
100
AcDbLine
 10
214.0602951230653
 20
137.1434262345637
 30
0.0
 11
270.6272930649566
 21
137.1434262345637
 31
0.0
  0
LINE
  5
425F
330
19
100
AcDbEntity
  8
0
  6
Continuous
100
AcDbLine
 10
315.6272930649564
 20
152.7434262345638
 30
0.0
 11
373.0602951230653
 21
152.7434262345638
 31
0.0
  0
LINE
  5
4260
330
19
100
AcDbEntity
  8
0
  6
Continuous
100
AcDbLine
 10
315.6272930649566
 20
137.1434262345637
 30
0.0
 11
373.0602951230653
 21
137.1434262345637
 31
0.0
  0
DIMENSION
  5
4261
330
19
100
AcDbEntity
  8
0
100
AcDbDimension
  2
*D37
 10
384.8613767965467
 20
152.7434262345638
 30
0.0
 11
381.1113767965466
 21
166.886283377421
 31
0.0
 70
    32
  1
%%c15.6
 71
     5
 42
15.60000000000002
  3
STANDARD
100
AcDbAlignedDimension
 13
373.0602951230653
 23
137.1434262345637
 33
0.0
 14
373.0602951230653
 24
152.7434262345638
 34
0.0
 50
90.0
100
AcDbRotatedDimension
1001
ACAD
1000
DSTYLE
1002
{
1070
    40
1040
1.5
1070
    41
1040
2.5
1070
    42
1040
0.8
1070
    43
1040
0.8
1070
    44
1040
0.8
1070
    73
1070
     0
1070
    74
1070
     0
1070
    77
1070
     3
1070
    78
1070
     8
1070
   141
1040
-1.0
1070
   147
1040
1.0
1070
   172
1070
     1
1070
   176
1070
   115
1070
   177
1070
   115
1070
   178
1070
     7
1070
   271
1070
     3
1002
}
  0
ENDSEC
  0
SECTION
  2
OBJECTS
  0
DICTIONARY
  5
C
330
0
100
AcDbDictionary
281
     1
  3
ACAD_COLOR
350
4280
  3
ACAD_GROUP
350
D
  3
ACAD_LAYOUT
350
4155
  3
ACAD_MATERIAL
350
427F
  3
ACAD_MLEADERSTYLE
350
42EF
  3
ACAD_MLINESTYLE
350
E
  3
ACAD_PLOTSETTINGS
350
4156
  3
ACAD_PLOTSTYLENAME
350
4153
  3
ACAD_SCALELIST
350
42CD
  3
ACAD_TABLESTYLE
350
4281
  3
ACAD_VISUALSTYLE
350
42BC
  3
ACDB_RECOMPOSE_DATA
350
430D
  3
ACDBVARIABLEDICTIONARY
350
1BF
  3
DWGPROPS
350
430E
  0
DICTIONARY
  5
42FE
330
F
100
AcDbDictionary
280
     1
281
     1
  3
ADSK_XREC_LAYER_RECONCILED
360
42FF
  0
DICTIONARY
  5
4300
330
55
100
AcDbDictionary
280
     1
281
     1
  3
ADSK_XREC_LAYER_RECONCILED
360
4301
  0
DICTIONARY
  5
4302
330
61
100
AcDbDictionary
280
     1
281
     1
  3
ADSK_XREC_LAYER_RECONCILED
360
4303
  0
DICTIONARY
  5
4304
330
62
100
AcDbDictionary
280
     1
281
     1
  3
ADSK_XREC_LAYER_RECONCILED
360
4305
  0
DICTIONARY
  5
4306
330
2AD3
100
AcDbDictionary
280
     1
281
     1
  3
ADSK_XREC_LAYER_RECONCILED
360
4307
  0
DICTIONARY
  5
4315
330
424D
100
AcDbDictionary
280
     1
281
     1
  3
ACAD_MTEXT_RT
360
4316
  0
DICTIONARY
  5
4280
102
{ACAD_REACTORS
330
C
102
}
330
C
100
AcDbDictionary
281
     1
  0
DICTIONARY
  5
D
102
{ACAD_REACTORS
330
C
102
}
330
C
100
AcDbDictionary
281
     1
  3
*A1
350
3315
  3
*A2
350
3935
  0
DICTIONARY
  5
4155
102
{ACAD_REACTORS
330
C
102
}
330
C
100
AcDbDictionary
281
     1
  3
Model
350
4157
  3
배치1
350
4158
  0
DICTIONARY
  5
427F
102
{ACAD_REACTORS
330
C
102
}
330
C
100
AcDbDictionary
281
     1
  3
ByBlock
350
42AC
  3
ByLayer
350
42A4
  3
Global
350
42B4
  0
DICTIONARY
  5
42EF
102
{ACAD_REACTORS
330
C
102
}
330
C
100
AcDbDictionary
281
     1
  3
Standard
350
42F0
  0
DICTIONARY
  5
E
102
{ACAD_REACTORS
330
C
102
}
330
C
100
AcDbDictionary
281
     1
  3
STANDARD
350
1C
  0
DICTIONARY
  5
4156
102
{ACAD_REACTORS
330
C
102
}
330
C
100
AcDbDictionary
281
     1
  0
ACDBDICTIONARYWDFLT
  5
4153
102
{ACAD_REACTORS
330
C
102
}
330
C
100
AcDbDictionary
281
     1
  3
Normal
350
4154
100
AcDbDictionaryWithDefault
340
4154
  0
DICTIONARY
  5
42CD
102
{ACAD_REACTORS
330
C
102
}
330
C
100
AcDbDictionary
281
     1
  3
A0
350
42CE
  3
A1
350
42CF
  3
A2
350
42D0
  3
A3
350
42D1
  3
A4
350
42D2
  3
A5
350
42D3
  3
A6
350
42D4
  3
A7
350
42D5
  3
A8
350
42D6
  3
A9
350
42D7
  3
B0
350
42D8
  3
B1
350
42D9
  3
B2
350
42DA
  3
B3
350
42DB
  3
B4
350
42DC
  3
B5
350
42DD
  3
B6
350
42DE
  3
B7
350
42DF
  3
B8
350
42E0
  3
B9
350
42E1
  3
C0
350
42E2
  3
C1
350
42E3
  3
C2
350
42E4
  3
C3
350
42E5
  3
C4
350
42E6
  3
C5
350
42E7
  3
C6
350
42E8
  3
C7
350
42E9
  3
C8
350
42EA
  3
C9
350
42EB
  3
D0
350
42EC
  3
D1
350
42ED
  3
D2
350
42EE
  0
DICTIONARY
  5
4281
102
{ACAD_REACTORS
330
C
102
}
330
C
100
AcDbDictionary
281
     1
  3
Standard
350
4282
  0
DICTIONARY
  5
42BC
102
{ACAD_REACTORS
330
C
102
}
330
C
100
AcDbDictionary
281
     1
  3
2dWireframe
350
42C2
  3
3D Hidden
350
42C4
  3
3dWireframe
350
42C3
  3
Basic
350
42C1
  3
Brighten
350
42C8
  3
ColorChange
350
42CC
  3
Conceptual
350
42C5
  3
Dim
350
42C7
  3
Facepattern
350
42CB
  3
Flat
350
42BD
  3
FlatWithEdges
350
42BE
  3
Gouraud
350
42BF
  3
GouraudWithEdges
350
42C0
  3
Linepattern
350
42CA
  3
Realistic
350
42C6
  3
Thicken
350
42C9
  0
XRECORD
  5
430D
102
{ACAD_REACTORS
330
C
102
}
330
C
100
AcDbXrecord
280
     1
 90
        1
330
4282
  0
DICTIONARY
  5
1BF
102
{ACAD_REACTORS
330
C
102
}
330
C
100
AcDbDictionary
281
     1
  3
CANNOSCALE
350
4309
  3
CMLEADERSTYLE
350
4308
  3
CTABLESTYLE
350
4296
  3
DIMASSOC
350
4169
  3
INDEXCTL
350
430A
  3
PROJECTNAME
350
4297
  3
SORTENTS
350
1C0
  0
XRECORD
  5
430E
102
{ACAD_REACTORS
330
C
102
}
330
C
100
AcDbXrecord
280
     1
  1
DWGPROPS COOKIE
  2

  3

  4

  6

  7

  8
양순영
  9

300
=
301
=
302
=
303
=
304
=
305
=
306
=
307
=
308
=
309
=
 40
0.2411657291666667
 41
2452464.575009942
 42
2455643.493881261
  1

 90
        0
  0
XRECORD
  5
42FF
102
{ACAD_REACTORS
330
42FE
102
}
330
42FE
100
AcDbXrecord
280
     1
290
     1
  0
XRECORD
  5
4301
102
{ACAD_REACTORS
330
4300
102
}
330
4300
100
AcDbXrecord
280
     1
290
     1
  0
XRECORD
  5
4303
102
{ACAD_REACTORS
330
4302
102
}
330
4302
100
AcDbXrecord
280
     1
290
     1
  0
XRECORD
  5
4305
102
{ACAD_REACTORS
330
4304
102
}
330
4304
100
AcDbXrecord
280
     1
290
     1
  0
XRECORD
  5
4307
102
{ACAD_REACTORS
330
4306
102
}
330
4306
100
AcDbXrecord
280
     1
290
     1
  0
XRECORD
  5
4316
102
{ACAD_REACTORS
330
4315
102
}
330
4315
100
AcDbXrecord
280
     1
 40
5298.0
  1
\A1;60°
  0
GROUP
  5
3315
102
{ACAD_REACTORS
330
D
102
}
330
D
100
AcDbGroup
300
Ball Screw  BNFN2010-1.5+300L
 70
     1
 71
     1
  0
GROUP
  5
3935
102
{ACAD_REACTORS
330
D
102
}
330
D
100
AcDbGroup
300
Ball Screw  BNFN2010-1.5+300L
 70
     1
 71
     1
  0
LAYOUT
  5
4157
102
{ACAD_XDICTIONARY
360
4311
102
}
102
{ACAD_REACTORS
330
4155
102
}
330
4155
100
AcDbPlotSettings
  1

  2
SBC-SERVER에서 자동 HP LaserJet 4V
  4
A4
  6

 40
6.805083274841307
 41
5.069413185119628
 42
6.805084228515625
 43
5.027069091796875
 44
209.9733276367186
 45
296.9683227539062
 46
0.0
 47
0.0
 48
0.0
 49
0.0
140
0.0
141
0.0
142
1.0
143
1.0
 70
 11952
 72
     0
 73
     1
 74
     0
  7
1.ctb
 75
     0
147
1.0
148
-1105.008668280591
149
-2180.822690011071
100
AcDbLayout
  1
Model
 70
     1
 71
     0
 10
0.0
 20
0.0
 11
12.0
 21
9.0
 12
0.0
 22
0.0
 32
0.0
 14
0.0
 24
0.0
 34
0.0
 15
0.0
 25
0.0
 35
0.0
146
0.0
 13
0.0
 23
0.0
 33
0.0
 16
1.0
 26
0.0
 36
0.0
 17
0.0
 27
1.0
 37
0.0
 76
     0
330
19
331
4298
  0
LAYOUT
  5
4158
102
{ACAD_XDICTIONARY
360
4313
102
}
102
{ACAD_REACTORS
330
4155
102
}
330
4155
100
AcDbPlotSettings
  1

  2
SBC-SERVER에서 자동 HP LaserJet 4V
  4

  6

 40
0.0
 41
0.0
 42
0.0
 43
0.0
 44
0.0
 45
0.0
 46
0.0
 47
0.0
 48
0.0
 49
0.0
140
0.0
141
0.0
142
1.0
143
1.0
 70
   688
 72
     0
 73
     0
 74
     5
  7
1.ctb
 75
    16
147
1.0
148
0.0
149
0.0
100
AcDbLayout
  1
배치1
 70
     1
 71
     1
 10
0.0
 20
0.0
 11
12.0
 21
9.0
 12
0.0
 22
0.0
 32
0.0
 14
1.000000000000000E+20
 24
1.000000000000000E+20
 34
1.000000000000000E+20
 15
-1.000000000000000E+20
 25
-1.000000000000000E+20
 35
-1.000000000000000E+20
146
0.0
 13
0.0
 23
0.0
 33
0.0
 16
1.0
 26
0.0
 36
0.0
 17
0.0
 27
1.0
 37
0.0
 76
     0
330
16
  0
MATERIAL
  5
42AC
102
{ACAD_XDICTIONARY
360
42AD
102
}
102
{ACAD_REACTORS
330
427F
102
}
330
427F
100
AcDbMaterial
  1
ByBlock
 72
     0
 43
0.0208333333333333
 43
0.0
 43
0.0
 43
0.0
 43
0.0
 43
0.0208333333333333
 43
0.0
 43
0.0
 43
0.0
 43
0.0
 43
1.0
 43
0.0
 43
0.0
 43
0.0
 43
0.0
 43
1.0
 77
     0
 47
0.0208333333333333
 47
0.0
 47
0.0
 47
0.0
 47
0.0
 47
0.0208333333333333
 47
0.0
 47
0.0
 47
0.0
 47
0.0
 47
1.0
 47
0.0
 47
0.0
 47
0.0
 47
0.0
 47
1.0
171
     0
 49
0.0208333333333333
 49
0.0
 49
0.0
 49
0.0
 49
0.0
 49
0.0208333333333333
 49
0.0
 49
0.0
 49
0.0
 49
0.0
 49
1.0
 49
0.0
 49
0.0
 49
0.0
 49
0.0
 49
1.0
175
     0
142
0.0208333333333333
142
0.0
142
0.0
142
0.0
142
0.0
142
0.0208333333333333
142
0.0
142
0.0
142
0.0
142
0.0
142
1.0
142
0.0
142
0.0
142
0.0
142
0.0
142
1.0
179
     0
144
0.0208333333333333
144
0.0
144
0.0
144
0.0
144
0.0
144
0.0208333333333333
144
0.0
144
0.0
144
0.0
144
0.0
144
1.0
144
0.0
144
0.0
144
0.0
144
0.0
144
1.0
147
0.0208333333333333
147
0.0
147
0.0
147
0.0
147
0.0
147
0.0208333333333333
147
0.0
147
0.0
147
0.0
147
0.0
147
1.0
147
0.0
147
0.0
147
0.0
147
0.0
147
1.0
  0
MATERIAL
  5
42A4
102
{ACAD_XDICTIONARY
360
42A5
102
}
102
{ACAD_REACTORS
330
427F
102
}
330
427F
100
AcDbMaterial
  1
ByLayer
 72
     0
 43
0.0208333333333333
 43
0.0
 43
0.0
 43
0.0
 43
0.0
 43
0.0208333333333333
 43
0.0
 43
0.0
 43
0.0
 43
0.0
 43
1.0
 43
0.0
 43
0.0
 43
0.0
 43
0.0
 43
1.0
 77
     0
 47
0.0208333333333333
 47
0.0
 47
0.0
 47
0.0
 47
0.0
 47
0.0208333333333333
 47
0.0
 47
0.0
 47
0.0
 47
0.0
 47
1.0
 47
0.0
 47
0.0
 47
0.0
 47
0.0
 47
1.0
171
     0
 49
0.0208333333333333
 49
0.0
 49
0.0
 49
0.0
 49
0.0
 49
0.0208333333333333
 49
0.0
 49
0.0
 49
0.0
 49
0.0
 49
1.0
 49
0.0
 49
0.0
 49
0.0
 49
0.0
 49
1.0
175
     0
142
0.0208333333333333
142
0.0
142
0.0
142
0.0
142
0.0
142
0.0208333333333333
142
0.0
142
0.0
142
0.0
142
0.0
142
1.0
142
0.0
142
0.0
142
0.0
142
0.0
142
1.0
179
     0
144
0.0208333333333333
144
0.0
144
0.0
144
0.0
144
0.0
144
0.0208333333333333
144
0.0
144
0.0
144
0.0
144
0.0
144
1.0
144
0.0
144
0.0
144
0.0
144
0.0
144
1.0
147
0.0208333333333333
147
0.0
147
0.0
147
0.0
147
0.0
147
0.0208333333333333
147
0.0
147
0.0
147
0.0
147
0.0
147
1.0
147
0.0
147
0.0
147
0.0
147
0.0
147
1.0
  0
MATERIAL
  5
42B4
102
{ACAD_XDICTIONARY
360
42B5
102
}
102
{ACAD_REACTORS
330
427F
102
}
330
427F
100
AcDbMaterial
  1
Global
 72
     0
 43
0.0208333333333333
 43
0.0
 43
0.0
 43
0.0
 43
0.0
 43
0.0208333333333333
 43
0.0
 43
0.0
 43
0.0
 43
0.0
 43
1.0
 43
0.0
 43
0.0
 43
0.0
 43
0.0
 43
1.0
 77
     0
 47
0.0208333333333333
 47
0.0
 47
0.0
 47
0.0
 47
0.0
 47
0.0208333333333333
 47
0.0
 47
0.0
 47
0.0
 47
0.0
 47
1.0
 47
0.0
 47
0.0
 47
0.0
 47
0.0
 47
1.0
171
     0
 49
0.0208333333333333
 49
0.0
 49
0.0
 49
0.0
 49
0.0
 49
0.0208333333333333
 49
0.0
 49
0.0
 49
0.0
 49
0.0
 49
1.0
 49
0.0
 49
0.0
 49
0.0
 49
0.0
 49
1.0
175
     0
142
0.0208333333333333
142
0.0
142
0.0
142
0.0
142
0.0
142
0.0208333333333333
142
0.0
142
0.0
142
0.0
142
0.0
142
1.0
142
0.0
142
0.0
142
0.0
142
0.0
142
1.0
179
     0
144
0.0208333333333333
144
0.0
144
0.0
144
0.0
144
0.0
144
0.0208333333333333
144
0.0
144
0.0
144
0.0
144
0.0
144
1.0
144
0.0
144
0.0
144
0.0
144
0.0
144
1.0
147
0.0208333333333333
147
0.0
147
0.0
147
0.0
147
0.0
147
0.0208333333333333
147
0.0
147
0.0
147
0.0
147
0.0
147
1.0
147
0.0
147
0.0
147
0.0
147
0.0
147
1.0
  0
MLEADERSTYLE
  5
42F0
102
{ACAD_REACTORS
330
42EF
102
}
330
42EF
100
AcDbMLeaderStyle
170
     2
171
     1
172
     0
 90
        2
 40
0.0
 41
0.0
173
     1
 91
-1056964608
340
13
 92
       -2
290
     1
 42
0.09
291
     1
 43
0.36
  3
Standard
 44
0.18
300

342
10
174
     1
178
     6
175
     1
176
     0
 93
-1056964608
 45
0.18
292
     0
297
     0
 46
0.18
 94
-1056964608
 47
1.0
 49
1.0
140
1.0
293
     1
141
0.0
294
     1
177
     0
142
1.0
295
     0
296
     0
143
0.125
1001
ACAD_MLEADERVER
1070
     2
  0
MLINESTYLE
  5
1C
102
{ACAD_REACTORS
330
E
102
}
330
E
100
AcDbMlineStyle
  2
STANDARD
 70
     0
  3

 62
     0
 51
90.0
 52
90.0
 71
     2
 49
0.5
 62
   256
  6
BYLAYER
 49
-0.5
 62
   256
  6
BYLAYER
  0
ACDBPLACEHOLDER
  5
4154
102
{ACAD_REACTORS
330
4153
102
}
330
4153
  0
SCALE
  5
42CE
102
{ACAD_REACTORS
330
42CD
102
}
330
42CD
100
AcDbScale
 70
     0
300
1:1
140
1.0
141
1.0
290
     1
  0
SCALE
  5
42CF
102
{ACAD_REACTORS
330
42CD
102
}
330
42CD
100
AcDbScale
 70
     0
300
1:2
140
1.0
141
2.0
290
     0
  0
SCALE
  5
42D0
102
{ACAD_REACTORS
330
42CD
102
}
330
42CD
100
AcDbScale
 70
     0
300
1:4
140
1.0
141
4.0
290
     0
  0
SCALE
  5
42D1
102
{ACAD_REACTORS
330
42CD
102
}
330
42CD
100
AcDbScale
 70
     0
300
1:5
140
1.0
141
5.0
290
     0
  0
SCALE
  5
42D2
102
{ACAD_REACTORS
330
42CD
102
}
330
42CD
100
AcDbScale
 70
     0
300
1:8
140
1.0
141
8.0
290
     0
  0
SCALE
  5
42D3
102
{ACAD_REACTORS
330
42CD
102
}
330
42CD
100
AcDbScale
 70
     0
300
1:10
140
1.0
141
10.0
290
     0
  0
SCALE
  5
42D4
102
{ACAD_REACTORS
330
42CD
102
}
330
42CD
100
AcDbScale
 70
     0
300
1:16
140
1.0
141
16.0
290
     0
  0
SCALE
  5
42D5
102
{ACAD_REACTORS
330
42CD
102
}
330
42CD
100
AcDbScale
 70
     0
300
1:20
140
1.0
141
20.0
290
     0
  0
SCALE
  5
42D6
102
{ACAD_REACTORS
330
42CD
102
}
330
42CD
100
AcDbScale
 70
     0
300
1:30
140
1.0
141
30.0
290
     0
  0
SCALE
  5
42D7
102
{ACAD_REACTORS
330
42CD
102
}
330
42CD
100
AcDbScale
 70
     0
300
1:40
140
1.0
141
40.0
290
     0
  0
SCALE
  5
42D8
102
{ACAD_REACTORS
330
42CD
102
}
330
42CD
100
AcDbScale
 70
     0
300
1:50
140
1.0
141
50.0
290
     0
  0
SCALE
  5
42D9
102
{ACAD_REACTORS
330
42CD
102
}
330
42CD
100
AcDbScale
 70
     0
300
1:100
140
1.0
141
100.0
290
     0
  0
SCALE
  5
42DA
102
{ACAD_REACTORS
330
42CD
102
}
330
42CD
100
AcDbScale
 70
     0
300
2:1
140
2.0
141
1.0
290
     0
  0
SCALE
  5
42DB
102
{ACAD_REACTORS
330
42CD
102
}
330
42CD
100
AcDbScale
 70
     0
300
4:1
140
4.0
141
1.0
290
     0
  0
SCALE
  5
42DC
102
{ACAD_REACTORS
330
42CD
102
}
330
42CD
100
AcDbScale
 70
     0
300
8:1
140
8.0
141
1.0
290
     0
  0
SCALE
  5
42DD
102
{ACAD_REACTORS
330
42CD
102
}
330
42CD
100
AcDbScale
 70
     0
300
10:1
140
10.0
141
1.0
290
     0
  0
SCALE
  5
42DE
102
{ACAD_REACTORS
330
42CD
102
}
330
42CD
100
AcDbScale
 70
     0
300
100:1
140
100.0
141
1.0
290
     0
  0
SCALE
  5
42DF
102
{ACAD_REACTORS
330
42CD
102
}
330
42CD
100
AcDbScale
 70
     0
300
1/128" = 1'-0"
140
0.0078125
141
12.0
290
     0
  0
SCALE
  5
42E0
102
{ACAD_REACTORS
330
42CD
102
}
330
42CD
100
AcDbScale
 70
     0
300
1/64" = 1'-0"
140
0.015625
141
12.0
290
     0
  0
SCALE
  5
42E1
102
{ACAD_REACTORS
330
42CD
102
}
330
42CD
100
AcDbScale
 70
     0
300
1/32" = 1'-0"
140
0.03125
141
12.0
290
     0
  0
SCALE
  5
42E2
102
{ACAD_REACTORS
330
42CD
102
}
330
42CD
100
AcDbScale
 70
     0
300
1/16" = 1'-0"
140
0.0625
141
12.0
290
     0
  0
SCALE
  5
42E3
102
{ACAD_REACTORS
330
42CD
102
}
330
42CD
100
AcDbScale
 70
     0
300
3/32" = 1'-0"
140
0.09375
141
12.0
290
     0
  0
SCALE
  5
42E4
102
{ACAD_REACTORS
330
42CD
102
}
330
42CD
100
AcDbScale
 70
     0
300
1/8" = 1'-0"
140
0.125
141
12.0
290
     0
  0
SCALE
  5
42E5
102
{ACAD_REACTORS
330
42CD
102
}
330
42CD
100
AcDbScale
 70
     0
300
3/16" = 1'-0"
140
0.1875
141
12.0
290
     0
  0
SCALE
  5
42E6
102
{ACAD_REACTORS
330
42CD
102
}
330
42CD
100
AcDbScale
 70
     0
300
1/4" = 1'-0"
140
0.25
141
12.0
290
     0
  0
SCALE
  5
42E7
102
{ACAD_REACTORS
330
42CD
102
}
330
42CD
100
AcDbScale
 70
     0
300
3/8" = 1'-0"
140
0.375
141
12.0
290
     0
  0
SCALE
  5
42E8
102
{ACAD_REACTORS
330
42CD
102
}
330
42CD
100
AcDbScale
 70
     0
300
1/2" = 1'-0"
140
0.5
141
12.0
290
     0
  0
SCALE
  5
42E9
102
{ACAD_REACTORS
330
42CD
102
}
330
42CD
100
AcDbScale
 70
     0
300
3/4" = 1'-0"
140
0.75
141
12.0
290
     0
  0
SCALE
  5
42EA
102
{ACAD_REACTORS
330
42CD
102
}
330
42CD
100
AcDbScale
 70
     0
300
1" = 1'-0"
140
1.0
141
12.0
290
     0
  0
SCALE
  5
42EB
102
{ACAD_REACTORS
330
42CD
102
}
330
42CD
100
AcDbScale
 70
     0
300
1-1/2" = 1'-0"
140
1.5
141
12.0
290
     0
  0
SCALE
  5
42EC
102
{ACAD_REACTORS
330
42CD
102
}
330
42CD
100
AcDbScale
 70
     0
300
3" = 1'-0"
140
3.0
141
12.0
290
     0
  0
SCALE
  5
42ED
102
{ACAD_REACTORS
330
42CD
102
}
330
42CD
100
AcDbScale
 70
     0
300
6" = 1'-0"
140
6.0
141
12.0
290
     0
  0
SCALE
  5
42EE
102
{ACAD_REACTORS
330
42CD
102
}
330
42CD
100
AcDbScale
 70
     0
300
1'-0" = 1'-0"
140
12.0
141
12.0
290
     0
  0
TABLESTYLE
  5
4282
102
{ACAD_XDICTIONARY
360
430B
102
}
102
{ACAD_REACTORS
330
4281
102
}
330
4281
100
AcDbTableStyle
  3
Standard
 70
     0
 71
     0
 40
0.06
 41
0.06
280
     0
281
     0
  7
STANDARD
140
0.18
170
     2
 62
     0
 63
     7
283
     0
274
    -2
284
     1
 64
     0
275
    -2
285
     1
 65
     0
276
    -2
286
     1
 66
     0
277
    -2
287
     1
 67
     0
278
    -2
288
     1
 68
     0
279
    -2
289
     1
 69
     0
  7
STANDARD
140
0.25
170
     5
 62
     0
 63
     7
283
     0
274
    -2
284
     1
 64
     0
275
    -2
285
     1
 65
     0
276
    -2
286
     1
 66
     0
277
    -2
287
     1
 67
     0
278
    -2
288
     1
 68
     0
279
    -2
289
     1
 69
     0
  7
STANDARD
140
0.18
170
     5
 62
     0
 63
     7
283
     0
274
    -2
284
     1
 64
     0
275
    -2
285
     1
 65
     0
276
    -2
286
     1
 66
     0
277
    -2
287
     1
 67
     0
278
    -2
288
     1
 68
     0
279
    -2
289
     1
 69
     0
  0
VISUALSTYLE
  5
42C2
102
{ACAD_REACTORS
330
42BC
102
}
330
42BC
100
AcDbVisualStyle
  2
2dWireframe
 70
     4
 71
     0
 72
     2
 73
     0
 90
        0
 40
-0.6
 41
-30.0
 62
     5
 63
     7
 74
     1
 91
        4
 64
     7
 65
   257
 75
     1
175
     1
 42
1.0
 92
        0
 66
   257
 43
1.0
 76
     1
 77
     6
 78
     2
 67
     7
 79
     5
170
     0
171
     0
290
     0
174
     0
 93
        1
 44
0.0
173
     0
291
     0
 45
0.0
1001
ACAD
1000
AcDbSavedByObjectVersion
1070
     0
  0
VISUALSTYLE
  5
42C4
102
{ACAD_REACTORS
330
42BC
102
}
330
42BC
100
AcDbVisualStyle
  2
3D Hidden
 70
     6
 71
     1
 72
     2
 73
     2
 90
        0
 40
-0.6
 41
-30.0
 62
     5
 63
     7
 74
     2
 91
        2
 64
     7
 65
   257
 75
     2
175
     1
 42
40.0
 92
        0
 66
   257
 43
1.0
 76
     1
 77
     6
 78
     2
 67
     7
 79
     3
170
     0
171
     0
290
     0
174
     0
 93
        1
 44
0.0
173
     0
291
     0
 45
0.0
1001
ACAD
1000
AcDbSavedByObjectVersion
1070
     0
  0
VISUALSTYLE
  5
42C3
102
{ACAD_REACTORS
330
42BC
102
}
330
42BC
100
AcDbVisualStyle
  2
3dWireframe
 70
     5
 71
     0
 72
     2
 73
     0
 90
        0
 40
-0.6
 41
-30.0
 62
     5
 63
     7
 74
     1
 91
        4
 64
     7
 65
   257
 75
     1
175
     1
 42
1.0
 92
        0
 66
   257
 43
1.0
 76
     1
 77
     6
 78
     2
 67
     7
 79
     5
170
     0
171
     0
290
     0
174
     0
 93
        1
 44
0.0
173
     0
291
     0
 45
0.0
1001
ACAD
1000
AcDbSavedByObjectVersion
1070
     0
  0
VISUALSTYLE
  5
42C1
102
{ACAD_REACTORS
330
42BC
102
}
330
42BC
100
AcDbVisualStyle
  2
Basic
 70
     7
 71
     1
 72
     0
 73
     1
 90
        0
 40
-0.6
 41
-30.0
 62
     5
 63
     7
 74
     0
 91
        4
 64
     7
 65
   257
 75
     1
175
     1
 42
1.0
 92
        8
 66
     7
 43
1.0
 76
     1
 77
     6
 78
     2
 67
     7
 79
     5
170
     0
171
     0
290
     0
174
     0
 93
        1
 44
0.0
173
     0
291
     1
 45
0.0
1001
ACAD
1000
AcDbSavedByObjectVersion
1070
     0
  0
VISUALSTYLE
  5
42C8
102
{ACAD_REACTORS
330
42BC
102
}
330
42BC
100
AcDbVisualStyle
  2
Brighten
 70
    12
 71
     2
 72
     2
 73
     0
 90
        0
 40
-0.6
 41
-30.0
 62
     5
 63
     7
 74
     1
 91
        4
 64
     7
 65
   257
 75
     1
175
     1
 42
1.0
 92
        8
 66
     7
 43
1.0
 76
     1
 77
     6
 78
     2
 67
     7
 79
     5
170
     0
171
     0
290
     0
174
     0
 93
        1
 44
50.0
173
     0
291
     1
 45
0.0
1001
ACAD
1000
AcDbSavedByObjectVersion
1070
     0
  0
VISUALSTYLE
  5
42CC
102
{ACAD_REACTORS
330
42BC
102
}
330
42BC
100
AcDbVisualStyle
  2
ColorChange
 70
    16
 71
     2
 72
     2
 73
     3
 90
        0
 40
-0.6
 41
-30.0
 62
     5
 63
     8
 74
     1
 91
        4
 64
     7
 65
   257
 75
     1
175
     1
 42
1.0
 92
        8
 66
     8
 43
1.0
 76
     1
 77
     6
 78
     2
 67
     7
 79
     5
170
     0
171
     0
290
     0
174
     0
 93
        1
 44
0.0
173
     0
291
     1
 45
0.0
1001
ACAD
1000
AcDbSavedByObjectVersion
1070
     0
  0
VISUALSTYLE
  5
42C5
102
{ACAD_REACTORS
330
42BC
102
}
330
42BC
100
AcDbVisualStyle
  2
Conceptual
 70
     9
 71
     3
 72
     2
 73
     0
 90
        0
 40
-0.6
 41
-30.0
 62
     5
 63
     7
 74
     2
 91
        2
 64
     7
 65
   257
 75
     1
175
     1
 42
40.0
 92
        8
 66
     7
 43
1.0
 76
     1
 77
     6
 78
     2
 67
     7
 79
     3
170
     0
171
     0
290
     0
174
     0
 93
        1
 44
0.0
173
     0
291
     0
 45
0.0
1001
ACAD
1000
AcDbSavedByObjectVersion
1070
     0
  0
VISUALSTYLE
  5
42C7
102
{ACAD_REACTORS
330
42BC
102
}
330
42BC
100
AcDbVisualStyle
  2
Dim
 70
    11
 71
     2
 72
     2
 73
     0
 90
        0
 40
-0.6
 41
-30.0
 62
     5
 63
     7
 74
     1
 91
        4
 64
     7
 65
   257
 75
     1
175
     1
 42
1.0
 92
        8
 66
     7
 43
1.0
 76
     1
 77
     6
 78
     2
 67
     7
 79
     5
170
     0
171
     0
290
     0
174
     0
 93
        1
 44
-50.0
173
     0
291
     1
 45
0.0
1001
ACAD
1000
AcDbSavedByObjectVersion
1070
     0
  0
VISUALSTYLE
  5
42CB
102
{ACAD_REACTORS
330
42BC
102
}
330
42BC
100
AcDbVisualStyle
  2
Facepattern
 70
    15
 71
     2
 72
     2
 73
     0
 90
        0
 40
-0.6
 41
-30.0
 62
     5
 63
     7
 74
     1
 91
        4
 64
     7
 65
   257
 75
     1
175
     1
 42
1.0
 92
        8
 66
     7
 43
1.0
 76
     1
 77
     6
 78
     2
 67
     7
 79
     5
170
     0
171
     0
290
     0
174
     0
 93
        1
 44
0.0
173
     0
291
     1
 45
0.0
1001
ACAD
1000
AcDbSavedByObjectVersion
1070
     0
  0
VISUALSTYLE
  5
42BD
102
{ACAD_REACTORS
330
42BC
102
}
330
42BC
100
AcDbVisualStyle
  2
Flat
 70
     0
 71
     2
 72
     1
 73
     1
 90
        2
 40
-0.6
 41
30.0
 62
     5
 63
     7
 74
     0
 91
        4
 64
     7
 65
   257
 75
     1
175
     1
 42
1.0
 92
        8
 66
     7
 43
1.0
 76
     1
 77
     6
 78
     2
 67
     7
 79
     5
170
     0
171
     0
290
     0
174
     0
 93
       13
 44
0.0
173
     0
291
     1
 45
0.0
1001
ACAD
1000
AcDbSavedByObjectVersion
1070
     0
  0
VISUALSTYLE
  5
42BE
102
{ACAD_REACTORS
330
42BC
102
}
330
42BC
100
AcDbVisualStyle
  2
FlatWithEdges
 70
     1
 71
     2
 72
     1
 73
     1
 90
        2
 40
-0.6
 41
30.0
 62
     5
 63
     7
 74
     1
 91
        4
 64
     7
 65
   257
 75
     1
175
     1
 42
1.0
 92
        0
 66
   257
 43
1.0
 76
     1
 77
     6
 78
     2
 67
     7
 79
     5
170
     0
171
     0
290
     0
174
     0
 93
       13
 44
0.0
173
     0
291
     1
 45
0.0
1001
ACAD
1000
AcDbSavedByObjectVersion
1070
     0
  0
VISUALSTYLE
  5
42BF
102
{ACAD_REACTORS
330
42BC
102
}
330
42BC
100
AcDbVisualStyle
  2
Gouraud
 70
     2
 71
     2
 72
     2
 73
     1
 90
        2
 40
-0.6
 41
30.0
 62
     5
 63
     7
 74
     0
 91
        4
 64
     7
 65
   257
 75
     1
175
     1
 42
1.0
 92
        0
 66
     7
 43
1.0
 76
     1
 77
     6
 78
     2
 67
     7
 79
     5
170
     0
171
     0
290
     0
174
     0
 93
       13
 44
0.0
173
     0
291
     1
 45
0.0
1001
ACAD
1000
AcDbSavedByObjectVersion
1070
     0
  0
VISUALSTYLE
  5
42C0
102
{ACAD_REACTORS
330
42BC
102
}
330
42BC
100
AcDbVisualStyle
  2
GouraudWithEdges
 70
     3
 71
     2
 72
     2
 73
     1
 90
        2
 40
-0.6
 41
30.0
 62
     5
 63
     7
 74
     1
 91
        4
 64
     7
 65
   257
 75
     1
175
     1
 42
1.0
 92
        0
 66
   257
 43
1.0
 76
     1
 77
     6
 78
     2
 67
     7
 79
     5
170
     0
171
     0
290
     0
174
     0
 93
       13
 44
0.0
173
     0
291
     1
 45
0.0
1001
ACAD
1000
AcDbSavedByObjectVersion
1070
     0
  0
VISUALSTYLE
  5
42CA
102
{ACAD_REACTORS
330
42BC
102
}
330
42BC
100
AcDbVisualStyle
  2
Linepattern
 70
    14
 71
     2
 72
     2
 73
     0
 90
        0
 40
-0.6
 41
-30.0
 62
     5
 63
     7
 74
     1
 91
        4
 64
     7
 65
   257
 75
     7
175
     7
 42
1.0
 92
        8
 66
     7
 43
1.0
 76
     1
 77
     6
 78
     2
 67
     7
 79
     5
170
     0
171
     0
290
     0
174
     0
 93
        1
 44
0.0
173
     0
291
     1
 45
0.0
1001
ACAD
1000
AcDbSavedByObjectVersion
1070
     0
  0
VISUALSTYLE
  5
42C6
102
{ACAD_REACTORS
330
42BC
102
}
330
42BC
100
AcDbVisualStyle
  2
Realistic
 70
     8
 71
     2
 72
     2
 73
     0
 90
        0
 40
-0.6
 41
-30.0
 62
     5
 63
     7
 74
     1
 91
        0
 64
     7
 65
   257
 75
     1
175
     1
 42
1.0
 92
        8
 66
     8
 43
1.0
 76
     1
 77
     6
 78
     2
 67
     7
 79
     5
170
     0
171
     0
290
     0
174
     0
 93
       13
 44
0.0
173
     0
291
     0
 45
0.0
1001
ACAD
1000
AcDbSavedByObjectVersion
1070
     0
  0
VISUALSTYLE
  5
42C9
102
{ACAD_REACTORS
330
42BC
102
}
330
42BC
100
AcDbVisualStyle
  2
Thicken
 70
    13
 71
     2
 72
     2
 73
     0
 90
        0
 40
-0.6
 41
-30.0
 62
     5
 63
     7
 74
     1
 91
        4
 64
     7
 65
   257
 75
     1
175
     1
 42
1.0
 92
       12
 66
     7
 43
1.0
 76
     1
 77
     6
 78
     2
 67
     7
 79
     5
170
     0
171
     0
290
     0
174
     0
 93
        1
 44
0.0
173
     0
291
     1
 45
0.0
1001
ACAD
1000
AcDbSavedByObjectVersion
1070
     0
  0
DICTIONARYVAR
  5
4309
102
{ACAD_REACTORS
330
1BF
102
}
330
1BF
100
DictionaryVariables
280
     0
  1
1:1
  0
DICTIONARYVAR
  5
4308
102
{ACAD_REACTORS
330
1BF
102
}
330
1BF
100
DictionaryVariables
280
     0
  1
STANDARD
  0
DICTIONARYVAR
  5
4296
102
{ACAD_REACTORS
330
1BF
102
}
330
1BF
100
DictionaryVariables
280
     0
  1
STANDARD
  0
DICTIONARYVAR
  5
4169
102
{ACAD_REACTORS
330
1BF
102
}
330
1BF
100
DictionaryVariables
280
     0
  1
1
  0
DICTIONARYVAR
  5
430A
102
{ACAD_REACTORS
330
1BF
102
}
330
1BF
100
DictionaryVariables
280
     0
  1
0
  0
DICTIONARYVAR
  5
4297
102
{ACAD_REACTORS
330
1BF
102
}
330
1BF
100
DictionaryVariables
280
     0
  1

  0
DICTIONARYVAR
  5
1C0
102
{ACAD_REACTORS
330
1BF
102
}
330
1BF
100
DictionaryVariables
280
     0
  1
96
  0
DICTIONARY
  5
4311
330
4157
100
AcDbDictionary
280
     1
281
     1
  3
ACAD_XREC_ROUNDTRIP
360
4312
  0
DICTIONARY
  5
4313
330
4158
100
AcDbDictionary
280
     1
281
     1
  3
ACAD_XREC_ROUNDTRIP
360
4314
  0
DICTIONARY
  5
42AD
330
42AC
100
AcDbDictionary
280
     1
281
     1
  3
ACAD_XREC_ROUNDTRIP
360
4319
  3
BUMPTILE
360
42AF
  3
DIFFUSETILE
360
42AE
  3
OPACITYTILE
360
42B2
  3
REFLECTIONTILE
360
42B1
  3
REFRACTIONTILE
360
42B3
  3
SPECULARTILE
360
42B0
  0
DICTIONARY
  5
42A5
330
42A4
100
AcDbDictionary
280
     1
281
     1
  3
ACAD_XREC_ROUNDTRIP
360
4318
  3
BUMPTILE
360
42A7
  3
DIFFUSETILE
360
42A6
  3
OPACITYTILE
360
42AA
  3
REFLECTIONTILE
360
42A9
  3
REFRACTIONTILE
360
42AB
  3
SPECULARTILE
360
42A8
  0
DICTIONARY
  5
42B5
330
42B4
100
AcDbDictionary
280
     1
281
     1
  3
ACAD_XREC_ROUNDTRIP
360
431A
  3
BUMPTILE
360
42B7
  3
DIFFUSETILE
360
42B6
  3
OPACITYTILE
360
42BA
  3
REFLECTIONTILE
360
42B9
  3
REFRACTIONTILE
360
42BB
  3
SPECULARTILE
360
42B8
  0
DICTIONARY
  5
430B
330
4282
100
AcDbDictionary
280
     1
281
     1
  3
ACAD_ROUNDTRIP_2008_TABLESTYLE_CELLSTYLEMAP
360
430C
  3
ACAD_XREC_ROUNDTRIP
360
4317
  0
XRECORD
  5
4312
102
{ACAD_REACTORS
330
4311
102
}
330
4311
100
AcDbXrecord
280
     1
102
SHADEPLOT
 70
     0
102
SHADEPLOTRESLEVEL
 70
     2
102
SHADEPLOTCUSTOMDPI
 70
   300
  0
XRECORD
  5
4314
102
{ACAD_REACTORS
330
4313
102
}
330
4313
100
AcDbXrecord
280
     1
102
SHADEPLOT
 70
     0
102
SHADEPLOTRESLEVEL
 70
     2
102
SHADEPLOTCUSTOMDPI
 70
   300
  0
XRECORD
  5
4319
102
{ACAD_REACTORS
330
42AD
102
}
330
42AD
100
AcDbXrecord
280
     1
102
MATERIAL
148
0.0
149
0.0
149
0.0
 93
        0
 94
      127
282
     0
 72
     0
 77
     0
171
     0
175
     0
179
     0
273
     0
  0
XRECORD
  5
42AF
102
{ACAD_REACTORS
330
42AD
102
}
330
42AD
100
AcDbXrecord
280
     1
270
     1
271
     1
  0
XRECORD
  5
42AE
102
{ACAD_REACTORS
330
42AD
102
}
330
42AD
100
AcDbXrecord
280
     1
270
     1
271
     1
  0
XRECORD
  5
42B2
102
{ACAD_REACTORS
330
42AD
102
}
330
42AD
100
AcDbXrecord
280
     1
270
     1
271
     1
  0
XRECORD
  5
42B1
102
{ACAD_REACTORS
330
42AD
102
}
330
42AD
100
AcDbXrecord
280
     1
270
     1
271
     1
  0
XRECORD
  5
42B3
102
{ACAD_REACTORS
330
42AD
102
}
330
42AD
100
AcDbXrecord
280
     1
270
     1
271
     1
  0
XRECORD
  5
42B0
102
{ACAD_REACTORS
330
42AD
102
}
330
42AD
100
AcDbXrecord
280
     1
270
     1
271
     1
  0
XRECORD
  5
4318
102
{ACAD_REACTORS
330
42A5
102
}
330
42A5
100
AcDbXrecord
280
     1
102
MATERIAL
148
0.0
149
0.0
149
0.0
 93
        0
 94
      127
282
     0
 72
     0
 77
     0
171
     0
175
     0
179
     0
273
     0
  0
XRECORD
  5
42A7
102
{ACAD_REACTORS
330
42A5
102
}
330
42A5
100
AcDbXrecord
280
     1
270
     1
271
     1
  0
XRECORD
  5
42A6
102
{ACAD_REACTORS
330
42A5
102
}
330
42A5
100
AcDbXrecord
280
     1
270
     1
271
     1
  0
XRECORD
  5
42AA
102
{ACAD_REACTORS
330
42A5
102
}
330
42A5
100
AcDbXrecord
280
     1
270
     1
271
     1
  0
XRECORD
  5
42A9
102
{ACAD_REACTORS
330
42A5
102
}
330
42A5
100
AcDbXrecord
280
     1
270
     1
271
     1
  0
XRECORD
  5
42AB
102
{ACAD_REACTORS
330
42A5
102
}
330
42A5
100
AcDbXrecord
280
     1
270
     1
271
     1
  0
XRECORD
  5
42A8
102
{ACAD_REACTORS
330
42A5
102
}
330
42A5
100
AcDbXrecord
280
     1
270
     1
271
     1
  0
XRECORD
  5
431A
102
{ACAD_REACTORS
330
42B5
102
}
330
42B5
100
AcDbXrecord
280
     1
102
MATERIAL
148
0.0
149
0.0
149
0.0
 93
        0
 94
      127
282
     0
 72
     0
 77
     0
171
     0
175
     0
179
     0
273
     0
  0
XRECORD
  5
42B7
102
{ACAD_REACTORS
330
42B5
102
}
330
42B5
100
AcDbXrecord
280
     1
270
     1
271
     1
  0
XRECORD
  5
42B6
102
{ACAD_REACTORS
330
42B5
102
}
330
42B5
100
AcDbXrecord
280
     1
270
     1
271
     1
  0
XRECORD
  5
42BA
102
{ACAD_REACTORS
330
42B5
102
}
330
42B5
100
AcDbXrecord
280
     1
270
     1
271
     1
  0
XRECORD
  5
42B9
102
{ACAD_REACTORS
330
42B5
102
}
330
42B5
100
AcDbXrecord
280
     1
270
     1
271
     1
  0
XRECORD
  5
42BB
102
{ACAD_REACTORS
330
42B5
102
}
330
42B5
100
AcDbXrecord
280
     1
270
     1
271
     1
  0
XRECORD
  5
42B8
102
{ACAD_REACTORS
330
42B5
102
}
330
42B5
100
AcDbXrecord
280
     1
270
     1
271
     1
  0
CELLSTYLEMAP
  5
430C
102
{ACAD_REACTORS
330
430B
102
}
330
430B
100
AcDbCellStyleMap
 90
        3
300
CELLSTYLE
  1
TABLEFORMAT_BEGIN
 90
        5
170
     1
 91
        0
 92
    32768
 62
   257
 93
        1
300
CONTENTFORMAT
  1
CONTENTFORMAT_BEGIN
 90
        0
 91
        0
 92
        4
 93
        0
300

 40
0.0
140
1.0
 94
        5
 62
     0
340
10
144
0.25
309
CONTENTFORMAT_END
171
     0
 94
        6
 95
        1
302
GRIDFORMAT
  1
GRIDFORMAT_BEGIN
 90
        0
 91
        1
 62
     0
 92
       -2
340
0
 93
        0
 40
0.045
309
GRIDFORMAT_END
 95
        2
302
GRIDFORMAT
  1
GRIDFORMAT_BEGIN
 90
        0
 91
        1
 62
     0
 92
       -2
340
0
 93
        0
 40
0.045
309
GRIDFORMAT_END
 95
        4
302
GRIDFORMAT
  1
GRIDFORMAT_BEGIN
 90
        0
 91
        1
 62
     0
 92
       -2
340
0
 93
        0
 40
0.045
309
GRIDFORMAT_END
 95
        8
302
GRIDFORMAT
  1
GRIDFORMAT_BEGIN
 90
        0
 91
        1
 62
     0
 92
       -2
340
0
 93
        0
 40
0.045
309
GRIDFORMAT_END
 95
       16
302
GRIDFORMAT
  1
GRIDFORMAT_BEGIN
 90
        0
 91
        1
 62
     0
 92
       -2
340
0
 93
        0
 40
0.045
309
GRIDFORMAT_END
 95
       32
302
GRIDFORMAT
  1
GRIDFORMAT_BEGIN
 90
        0
 91
        1
 62
     0
 92
       -2
340
0
 93
        0
 40
0.045
309
GRIDFORMAT_END
309
TABLEFORMAT_END
  1
CELLSTYLE_BEGIN
 90
        1
 91
        1
300
_TITLE
309
CELLSTYLE_END
300
CELLSTYLE
  1
TABLEFORMAT_BEGIN
 90
        5
170
     1
 91
        0
 92
        0
 62
   257
 93
        1
300
CONTENTFORMAT
  1
CONTENTFORMAT_BEGIN
 90
        0
 91
        0
 92
        4
 93
        0
300

 40
0.0
140
1.0
 94
        5
 62
     0
340
10
144
0.18
309
CONTENTFORMAT_END
171
     0
 94
        6
 95
        1
302
GRIDFORMAT
  1
GRIDFORMAT_BEGIN
 90
        0
 91
        1
 62
     0
 92
       -2
340
0
 93
        0
 40
0.045
309
GRIDFORMAT_END
 95
        2
302
GRIDFORMAT
  1
GRIDFORMAT_BEGIN
 90
        0
 91
        1
 62
     0
 92
       -2
340
0
 93
        0
 40
0.045
309
GRIDFORMAT_END
 95
        4
302
GRIDFORMAT
  1
GRIDFORMAT_BEGIN
 90
        0
 91
        1
 62
     0
 92
       -2
340
0
 93
        0
 40
0.045
309
GRIDFORMAT_END
 95
        8
302
GRIDFORMAT
  1
GRIDFORMAT_BEGIN
 90
        0
 91
        1
 62
     0
 92
       -2
340
0
 93
        0
 40
0.045
309
GRIDFORMAT_END
 95
       16
302
GRIDFORMAT
  1
GRIDFORMAT_BEGIN
 90
        0
 91
        1
 62
     0
 92
       -2
340
0
 93
        0
 40
0.045
309
GRIDFORMAT_END
 95
       32
302
GRIDFORMAT
  1
GRIDFORMAT_BEGIN
 90
        0
 91
        1
 62
     0
 92
       -2
340
0
 93
        0
 40
0.045
309
GRIDFORMAT_END
309
TABLEFORMAT_END
  1
CELLSTYLE_BEGIN
 90
        2
 91
        1
300
_HEADER
309
CELLSTYLE_END
300
CELLSTYLE
  1
TABLEFORMAT_BEGIN
 90
        5
170
     1
 91
        0
 92
        0
 62
   257
 93
        1
300
CONTENTFORMAT
  1
CONTENTFORMAT_BEGIN
 90
        0
 91
        0
 92
        4
 93
        0
300

 40
0.0
140
1.0
 94
        2
 62
     0
340
10
144
0.18
309
CONTENTFORMAT_END
171
     0
 94
        6
 95
        1
302
GRIDFORMAT
  1
GRIDFORMAT_BEGIN
 90
        0
 91
        1
 62
     0
 92
       -2
340
0
 93
        0
 40
0.045
309
GRIDFORMAT_END
 95
        2
302
GRIDFORMAT
  1
GRIDFORMAT_BEGIN
 90
        0
 91
        1
 62
     0
 92
       -2
340
0
 93
        0
 40
0.045
309
GRIDFORMAT_END
 95
        4
302
GRIDFORMAT
  1
GRIDFORMAT_BEGIN
 90
        0
 91
        1
 62
     0
 92
       -2
340
0
 93
        0
 40
0.045
309
GRIDFORMAT_END
 95
        8
302
GRIDFORMAT
  1
GRIDFORMAT_BEGIN
 90
        0
 91
        1
 62
     0
 92
       -2
340
0
 93
        0
 40
0.045
309
GRIDFORMAT_END
 95
       16
302
GRIDFORMAT
  1
GRIDFORMAT_BEGIN
 90
        0
 91
        1
 62
     0
 92
       -2
340
0
 93
        0
 40
0.045
309
GRIDFORMAT_END
 95
       32
302
GRIDFORMAT
  1
GRIDFORMAT_BEGIN
 90
        0
 91
        1
 62
     0
 92
       -2
340
0
 93
        0
 40
0.045
309
GRIDFORMAT_END
309
TABLEFORMAT_END
  1
CELLSTYLE_BEGIN
 90
        3
 91
        2
300
_DATA
309
CELLSTYLE_END
  0
XRECORD
  5
4317
102
{ACAD_REACTORS
330
430B
102
}
330
430B
100
AcDbXrecord
280
     1
102
ACAD_ROUNDTRIP_PRE2007_TABLESTYLE
 90
        4
 91
        0
  1

 92
        4
 93
        0
  2

 94
        4
 95
        0
  3

  0
ENDSEC
  0
EOF
